<?xml version="1.0" standalone="no"?>
<!DOCTYPE svg PUBLIC "-//W3C//DTD SVG 1.1//EN" "http://www.w3.org/Graphics/SVG/1.1/DTD/svg11.dtd" >
<svg xmlns="http://www.w3.org/2000/svg">
<metadata>
This is a custom SVG webfont generated by Font Squirrel.
Copyright   : Copyright  2011 Hyundai Motor Company and YoonDesign Inc All rights reserved
Designer    : YoonDesign Inc
Foundry     : YoonDesign Inc
Foundry URL : httpwwwyoonfontcokr
</metadata>
<defs>
<font id="ModernHMedium" horiz-adv-x="1064" >
<font-face units-per-em="2048" ascent="1638" descent="-410" />
<missing-glyph horiz-adv-x="614" />
<glyph unicode=" "  horiz-adv-x="614" />
<glyph unicode="&#x09;" horiz-adv-x="614" />
<glyph unicode="&#xa0;" horiz-adv-x="614" />
<glyph unicode="!" horiz-adv-x="675" d="M217 1516h242l-37 -1102h-170zM223 -61v233h223v-233h-223z" />
<glyph unicode="&#x22;" horiz-adv-x="901" d="M147 1538h211q-4 -96 -14 -276.5t-14 -278.5h-66q-41 0 -64.5 25.5t-25.5 62.5q-17 262 -27 467zM516 1538h209q-4 -96 -14.5 -276.5t-14.5 -278.5h-63q-43 0 -66.5 25.5t-25.5 62.5q-4 82 -12.5 233.5t-12.5 233.5z" />
<glyph unicode="#" horiz-adv-x="1427" d="M57 365v159h254l66 400h-209v159h233l68 412h201l-68 -412h340l68 412h200l-67 -412h225v-88q0 -41 -17.5 -56t-60.5 -15h-174l-63 -400h204v-88q0 -41 -17 -56t-60 -15h-154l-59 -371q-12 -84 -86 -84h-127l73 455h-342l-59 -371q-12 -84 -86 -84h-127l74 455h-230z M512 524h340l66 400h-343z" />
<glyph unicode="$" horiz-adv-x="1085" d="M82 0v68q0 49 27.5 70.5t97.5 21.5h237v497l-92 41q-266 117 -266 365q0 303 358 336v157h199v-151h303v-68q0 -59 -26.5 -76.5t-96.5 -17.5h-180v-485l66 -31q170 -80 234.5 -162t64.5 -207q0 -309 -365 -352v-156h-117q-47 0 -64.5 20.5t-17.5 68.5v61h-362zM287 1063 q0 -78 36.5 -124t120.5 -89v385q-157 -27 -157 -172zM643 170q166 35 166 186q0 66 -34 114t-132 97v-397z" />
<glyph unicode="%" horiz-adv-x="1738" d="M72 1096q0 166 87 257t251 91q160 0 249 -92t89 -256q0 -162 -89.5 -254t-248.5 -92q-164 0 -251 89t-87 257zM270 1096q0 -186 140 -187q80 0 108.5 49.5t28.5 137.5t-29 138t-108 50q-140 0 -140 -188zM410 -63l706 1529h211l-678 -1464q-18 -39 -41.5 -52t-64.5 -13 h-133zM985 303q0 166 87 257t251 91q160 0 249 -92t89 -256t-88 -255t-250 -91q-164 0 -251 89t-87 257zM1184 303q0 -186 139 -186q80 0 108.5 49t28.5 137t-28.5 138.5t-108.5 50.5q-139 -1 -139 -189z" />
<glyph unicode="&#x26;" horiz-adv-x="1439" d="M76 315q0 219 223 375l133 92l-92 111q-45 55 -65.5 84t-44 84t-23.5 110q0 145 103.5 234.5t307.5 89.5q176 0 293 -92t117 -238q0 -178 -166 -301l-166 -119l338 -389q53 100 53 277l181 -21q-6 -240 -107 -399l240 -274h-234l-114 124q-186 -154 -465 -153 q-258 0 -385 116.5t-127 288.5zM276 313q0 -113 86.5 -177t225.5 -64q219 0 346 127l-387 450l-135 -96q-74 -55 -105 -109.5t-31 -130.5zM408 1174q-2 -72 65 -156l113 -137l143 98q98 68 98 186q0 78 -56 123t-153 45q-204 1 -210 -159z" />
<glyph unicode="'" horiz-adv-x="589" d="M193 1538h208q-4 -96 -14 -276.5t-14 -278.5h-62q-43 0 -66.5 25.5t-25.5 62.5q-10 205 -26 467z" />
<glyph unicode="(" horiz-adv-x="778" d="M174 720.5q0 194.5 16 317.5q23 178 102 305t232 220l105 -113q-203 -119 -244 -414q-16 -117 -16 -315q0 -195 16 -315q16 -127 80.5 -241t163.5 -171l-105 -119q-141 68 -228 212t-106 316q-16 123 -16 317.5z" />
<glyph unicode=")" horiz-adv-x="786" d="M152 -12q203 119 243 413q16 117 17 316q0 195 -17 315q-16 127 -80.5 240.5t-162.5 171.5l104 119q141 -68 227 -211.5t107 -317.5q16 -147 16 -317q0 -195 -16 -318q-23 -178 -101.5 -305t-232.5 -219z" />
<glyph unicode="*" horiz-adv-x="1171" d="M129 924l334 133l-330 160l111 180l284 -213l-30 354h202l-24 -338l285 201l100 -184l-320 -146l320 -147l-103 -181l-282 193l31 -332h-207l30 328l-284 -187z" />
<glyph unicode="+" horiz-adv-x="1228" d="M113 616v162h399v406h203v-406h403v-162h-403v-411h-203v411h-399z" />
<glyph unicode="," horiz-adv-x="524" d="M135 -61v233h252v-233q0 -106 -50 -185.5t-140 -115.5q-8 12 -27.5 36.5t-28.5 36.5q111 59 111 170v58h-117z" />
<glyph unicode="-" horiz-adv-x="1132" d="M135 616v162h864v-162h-864z" />
<glyph unicode="." horiz-adv-x="524" d="M150 -61v233h223v-233h-223z" />
<glyph unicode="/" horiz-adv-x="1003" d="M117 -106l581 1644h203l-584 -1644h-200z" />
<glyph unicode="0" d="M66 707q0 162 11 278.5t42 218t82 161.5t133 95t196 35q117 0 200 -32.5t136.5 -92t82 -161t39.5 -218.5t11 -284q0 -436 -101 -616.5t-367.5 -180.5t-365.5 187.5t-99 609.5zM266 706.5q0 -108.5 3 -183t12.5 -153.5t28 -128t47 -91t71.5 -60.5t102 -18.5 q63 0 108.5 18.5t75 61.5t47 90t26 129t10.5 151.5t2 184.5q0 111 -2 178t-10.5 149t-26 129t-47 90t-74.5 61.5t-109 18.5q-59 0 -103 -18.5t-72.5 -60.5t-46 -90t-27 -125.5t-12.5 -150.5t-3 -181.5z" />
<glyph unicode="1" d="M238 1305v161h368q80 0 80 -75v-1452h-94q-57 0 -82 28.5t-25 89.5v1248h-247z" />
<glyph unicode="2" d="M90 63v189q0 168 137 266l396 279q141 100 141 280q0 115 -78 185.5t-223 70.5q-152 0 -344 -57v164q166 55 344 55q246 0 375 -107.5t127 -310.5q-2 -135 -53.5 -230t-166.5 -177l-385 -273q-70 -49 -69 -157v-140h684v-61q0 -100 -111 -100h-635q-76 0 -107.5 25 t-31.5 99z" />
<glyph unicode="3" d="M92 12q0 92 107 78q113 -14 233 -14q168 0 257 63.5t89 229.5q0 158 -70.5 218t-226.5 64h-227q-35 0 -48 11.5t-13 44.5v106h288q143 0 201.5 68.5t58.5 226.5q0 125 -88 176q-86 51 -192 49q-63 0 -160 -12q-37 -4 -93 -16.5t-75 -14.5v160q166 45 330 45 q209 0 346 -95t133 -296q-4 -270 -192 -363q117 -35 173 -134t56 -226q0 -248 -146.5 -361.5t-402.5 -109.5q-143 0 -338 33v69z" />
<glyph unicode="4" d="M33 217v166l536 991q25 49 57.5 70.5t94.5 21.5h180v-1089h131v-76q0 -84 -86 -84h-45v-278h-92q-55 0 -77.5 27.5t-22.5 90.5v160h-676zM221 377h488v897z" />
<glyph unicode="5" d="M109 14q0 49 35.5 64.5t74.5 9.5q145 -14 215 -16q164 -4 245 84t81 262q0 127 -56.5 204.5t-216.5 77.5h-360v766h799v-77q0 -84 -95 -84h-503v-443h172q252 0 356.5 -113.5t104.5 -330.5q0 -508 -512 -508q-152 0 -340 33v71z" />
<glyph unicode="6" d="M82 324v577q0 563 518 563q184 0 313 -16v-84q0 -47 -22.5 -60.5t-61.5 -13.5q-139 10 -227 10q-90 0 -154.5 -27.5t-97.5 -65.5t-51 -95t-21.5 -97t-3.5 -91v-109q98 98 275 98q215 0 323.5 -105.5t108.5 -299.5v-184q0 -403 -444 -414q-217 -4 -336 102.5t-119 311.5z M274 348q0 -145 59.5 -207.5t203.5 -62.5q250 0 249 272v131q0 143 -59 203.5t-182 60.5q-135 0 -203 -59t-68 -197v-141z" />
<glyph unicode="7" d="M88 1305v161h819q72 0 72 -61v-82q0 -39 -25 -106l-456 -1211q-29 -68 -92 -67h-130l517 1366h-705z" />
<glyph unicode="8" d="M41 346q0 305 197 414q-162 100 -162 319q0 213 125 314.5t329.5 101.5t332.5 -102.5t128 -311.5q0 -111 -42 -198.5t-124 -126.5q111 -51 156 -149.5t45 -248.5q0 -209 -123 -328.5t-368 -119.5q-227 0 -360.5 109.5t-133.5 326.5zM242 367q0 -141 75.5 -218t217.5 -77 q152 0 221 85t69 205q0 158 -65.5 235t-229.5 77q-154 0 -221 -77.5t-67 -229.5zM276 1081q0 -258 252 -258q262 0 263 258q0 252 -259 252q-256 0 -256 -252z" />
<glyph unicode="9" d="M82 895v186q0 403 444 414q217 4 336 -102.5t119 -311.5v-579q0 -563 -518 -563q-184 0 -313 16v84q0 78 83 74q139 -10 228 -11q90 0 154.5 28t97 65.5t51 95t21.5 97.5t3 91v109q-98 -98 -274 -99q-215 0 -323.5 105.5t-108.5 300.5zM276 922q0 -143 59.5 -204 t182.5 -61q135 0 202.5 59.5t67.5 196.5v144q0 145 -59 207.5t-203 62.5q-250 0 -250 -272v-133z" />
<glyph unicode=":" horiz-adv-x="524" d="M150 184v234h223v-234h-223zM150 991v234h223v-234h-223z" />
<glyph unicode=";" horiz-adv-x="524" d="M92 -6q12 72 36 213t36 211h217q-131 -369 -184 -522h-62q-59 0 -43 98zM150 991v234h223v-234h-223z" />
<glyph unicode="&#x3c;" horiz-adv-x="1013" d="M125 698q393 434 590 650q23 -16 68.5 -57.5t72.5 -61.5l-485 -531q80 -88 241.5 -266t241.5 -266l-139 -125q-84 92 -284 316t-306 341z" />
<glyph unicode="=" horiz-adv-x="1187" d="M162 414v161h864v-161h-864zM162 872v162h864v-162h-864z" />
<glyph unicode="&#x3e;" horiz-adv-x="974" d="M184 1231q27 18 72 57t72 60q70 -78 272.5 -302.5t312.5 -347.5q-100 -111 -294.5 -329.5t-290.5 -325.5l-142 123l484 532q-80 88 -243 266.5t-243 266.5z" />
<glyph unicode="?" horiz-adv-x="1101" d="M88 1452q199 63 406 64q229 0 368 -101.5t139 -279.5q0 -233 -192 -373l-176 -125q-39 -29 -48.5 -60.5t-9.5 -97.5v-112h-200v118q0 98 18.5 155.5t67.5 90.5l186 127q90 61 122 123.5t32 144.5q0 109 -79 168.5t-224 59.5q-195 0 -400 -62zM362 -61v233h224v-233h-224z " />
<glyph unicode="@" horiz-adv-x="1875" d="M74 709q0 385 233.5 619.5t667.5 234.5q401 0 612 -208t211 -558q0 -242 -140 -408t-364 -166h-426q-147 0 -238 74t-91 192v103q0 135 89 204.5t251 65.5q113 0 243 -12v78q0 57 -27.5 83.5t-101.5 26.5h-282q-57 0 -77 18.5t-20 63.5v80h408q160 0 230.5 -74.5 t70.5 -218.5v-512q117 2 194.5 127t77.5 273q0 283 -150.5 444.5t-475.5 161.5q-336 0 -515.5 -194.5t-179.5 -501.5q0 -309 167 -489.5t520 -180.5q170 0 376 63l37 -98q20 -49 -28 -63q-209 -63 -416 -64q-418 0 -637 227.5t-219 608.5zM741 506q0 -66 39 -93.5t127 -27.5 h215v305q-106 12 -215 12q-88 0 -127 -25.5t-39 -90.5v-80z" />
<glyph unicode="A" horiz-adv-x="1343" d="M35 -61l512 1527h174q72 0 98 -73l492 -1454h-205l-178 542q-20 -39 -69.5 -66.5t-115.5 -27.5h-358l-143 -448h-207zM438 553h467l-233 721z" />
<glyph unicode="B" horiz-adv-x="1302" d="M150 -61v1527h591q201 0 303.5 -97t102.5 -257v-92q0 -186 -141 -287q90 -39 137 -116.5t47 -170.5v-133q0 -188 -131 -281t-318 -93h-591zM348 100h391q121 0 185.5 63.5t64.5 160.5v96q0 100 -60.5 163.5t-187.5 63.5h-393v-547zM348 809h395q113 0 159 62.5t46 150.5 v80q0 88 -53 145.5t-152 57.5h-395v-496z" />
<glyph unicode="C" horiz-adv-x="1173" d="M125 332v747q0 180 121 283.5t336 103.5h497v-57q0 -49 -27.5 -76.5t-105.5 -27.5h-358q-262 0 -262 -252v-707q0 -104 56 -175t161 -71h557v-59q0 -102 -135 -102h-430q-180 0 -295 108.5t-115 284.5z" />
<glyph unicode="D" horiz-adv-x="1345" d="M152 -61v1527h571q242 0 368 -120.5t126 -313.5v-670q0 -190 -125 -306.5t-369 -116.5h-571zM350 100h373q135 0 215 75t80 187v670q0 125 -81 199t-214 74h-373v-1205z" />
<glyph unicode="E" horiz-adv-x="1212" d="M152 -61v1527h946v-51q0 -57 -22.5 -83.5t-90.5 -26.5h-633v-476h680v-57q0 -49 -22.5 -76.5t-87.5 -27.5h-570v-568h770v-57q0 -49 -23.5 -76.5t-86.5 -27.5h-860z" />
<glyph unicode="F" horiz-adv-x="1169" d="M152 53v1413h970v-55q0 -106 -121 -106h-649v-476h703v-57q0 -104 -123 -104h-580v-729h-90q-59 0 -84.5 25.5t-25.5 88.5z" />
<glyph unicode="G" horiz-adv-x="1359" d="M137 340v731q0 184 124 289.5t314 105.5h617v-53q0 -57 -27.5 -82.5t-99.5 -25.5h-490q-104 0 -170.5 -62.5t-66.5 -171.5v-733q0 -102 61.5 -170t175.5 -68h250q96 0 148.5 62.5t52.5 156.5v275q0 25 -9 33t-30 8h-201q-66 0 -93 19.5t-27 72.5v70h407q84 0 119 -38 t35 -120v-320q0 -186 -108.5 -283t-291.5 -97h-252q-199 0 -318.5 103t-119.5 298z" />
<glyph unicode="H" horiz-adv-x="1376" d="M152 49v1417h200v-637h666v637h201v-1527h-89q-59 0 -85.5 25.5t-26.5 84.5v709q-57 -90 -180 -90h-486v-729h-90q-59 0 -84.5 25.5t-25.5 84.5z" />
<glyph unicode="I" horiz-adv-x="538" d="M172 49v1417h203v-1527h-92q-59 0 -85 25.5t-26 84.5z" />
<glyph unicode="J" horiz-adv-x="845" d="M27 2q0 55 26.5 76.5t91.5 21.5h129q113 0 164 51.5t51 174.5v1140h203v-1140q0 -197 -101.5 -292t-316.5 -95h-247v63z" />
<glyph unicode="K" horiz-adv-x="1267" d="M152 51v1415h200v-1527h-92q-57 0 -82.5 26.5t-25.5 85.5zM422 727l565 739h244l-565 -737l594 -790h-164q-80 0 -119 53z" />
<glyph unicode="L" horiz-adv-x="1101" d="M152 -61v1527h200v-1366h713v-57q0 -57 -23.5 -80.5t-83.5 -23.5h-806z" />
<glyph unicode="M" horiz-adv-x="1808" d="M158 37v1429h209l510 -948q12 -25 24.5 -24.5t26.5 24.5l510 948h209v-1527h-91q-59 0 -84.5 25.5t-25.5 82.5v1038l-385 -694q-57 -106 -160 -106q-98 0 -158 104l-385 696v-1146h-90q-110 0 -110 98z" />
<glyph unicode="N" horiz-adv-x="1370" d="M152 49v1417h632q227 0 330 -85t103 -314v-1128h-89q-59 0 -85.5 25.5t-26.5 84.5v1020q0 135 -50.5 185.5t-181.5 50.5h-432v-1366h-90q-59 0 -84.5 25.5t-25.5 84.5z" />
<glyph unicode="O" horiz-adv-x="1423" d="M121 559v287q0 649 588 649q297 0 443 -167t146 -482v-289q0 -315 -146 -481t-443 -166q-588 0 -588 649zM322 557q0 -471 387 -475q389 0 389 477v289q-4 475 -389 475q-387 0 -387 -477v-289z" />
<glyph unicode="P" horiz-adv-x="1263" d="M150 49v1417h557q215 0 327.5 -89t112.5 -287v-199q0 -53 -6 -95t-32 -98.5t-71 -94.5t-130 -64.5t-201 -26.5h-357v-573h-88q-59 0 -85.5 25.5t-26.5 84.5zM350 678h357q240 0 239 213v199q0 211 -239 210h-357v-622z" />
<glyph unicode="Q" horiz-adv-x="1425" d="M123 559v287q0 649 588 649q297 0 443 -167t146 -482v-289q0 -358 -186 -520l209 -273h-131q-86 0 -133 58l-103 127q-113 -39 -245 -39q-588 0 -588 649zM324 557q0 -256 88 -365.5t299 -109.5q225 0 307 114.5t82 362.5v289q1 19 1 38q0 84 -16 151q-18 83 -61 149.5 t-122 101.5t-191 35q-111 0 -190 -35t-122 -101.5t-61 -150.5q-15 -69 -15 -152q0 -19 1 -38v-289z" />
<glyph unicode="R" horiz-adv-x="1290" d="M150 49v1417h602q209 0 316.5 -98t107.5 -252v-153q0 -119 -62.5 -210t-198.5 -130l318 -684h-217l-303 661h-363v-661h-92q-57 0 -82.5 25.5t-25.5 84.5zM350 766h402q223 0 223 215v115q0 98 -56.5 151t-166.5 53h-402v-534z" />
<glyph unicode="S" horiz-adv-x="1165" d="M82 2q0 51 26.5 74.5t94.5 23.5h354q313 0 313 228q0 82 -53 141t-180 117l-264 119q-274 125 -275 389q0 172 119 272t356 100h449v-67q0 -55 -28.5 -74.5t-96.5 -19.5h-324q-272 0 -272 -211q0 -86 46 -139.5t149 -102.5l252 -115q184 -86 254.5 -177t70.5 -230 q0 -90 -30.5 -160t-79 -113t-117 -70.5t-137 -37.5t-146.5 -10h-481v63z" />
<glyph unicode="T" horiz-adv-x="1220" d="M37 1305v161h1153v-55q0 -59 -22.5 -82.5t-94.5 -23.5h-360v-1366h-90q-57 0 -84 25.5t-27 84.5v1256h-475z" />
<glyph unicode="U" horiz-adv-x="1384" d="M154 338v1128h200v-1130q0 -135 50.5 -185.5t181.5 -50.5h432v1366h201v-1527h-633q-227 0 -329.5 85t-102.5 314z" />
<glyph unicode="V" horiz-adv-x="1320" d="M27 1466h206l426 -1339l426 1339h209l-510 -1527h-161q-86 0 -111 75z" />
<glyph unicode="W" horiz-adv-x="1859" d="M29 1466h200l293 -1310q109 385 312 1177h204l312 -1177l292 1310h201q-61 -258 -179 -763.5t-179 -763.5h-142q-117 0 -151 133l-256 958q-205 -750 -291 -1091h-131q-72 0 -105.5 29.5t-52.5 99.5q-59 258 -170.5 733t-156.5 665z" />
<glyph unicode="X" horiz-adv-x="1333" d="M37 -61l512 766l-504 761h221l393 -589l394 589h225l-502 -761l510 -766h-229l-398 589l-393 -589h-229z" />
<glyph unicode="Y" horiz-adv-x="1359" d="M33 1466h217l426 -737l428 737h219l-551 -921v-606h-88q-59 0 -86 25.5t-27 84.5v496z" />
<glyph unicode="Z" horiz-adv-x="1265" d="M68 -61v172l862 1194h-838v161h1061v-163l-866 -1203h901v-102q0 -59 -68 -59h-1052z" />
<glyph unicode="[" horiz-adv-x="901" d="M272 -156v1774h480v-162h-279v-1450h279v-162h-480z" />
<glyph unicode="\" horiz-adv-x="1062" d="M123 1538h203l583 -1644h-202z" />
<glyph unicode="]" horiz-adv-x="901" d="M162 6h276v1450h-276v162h477v-1774h-477v162z" />
<glyph unicode="^" horiz-adv-x="1241" d="M190 1186l336 485h195l334 -485h-217l-215 327l-211 -327h-222z" />
<glyph unicode="_" horiz-adv-x="1243" d="M211 -100h829v-162h-829v162z" />
<glyph unicode="`" horiz-adv-x="647" d="M127 1620l195 92q35 -82 105.5 -251t109.5 -259l-58 -26q-76 -37 -121 41z" />
<glyph unicode="a" horiz-adv-x="1099" d="M113 238v127q0 322 348 321h22q143 -2 283 -20v92q0 145 -164 145h-276q-78 0 -104.5 24.5t-26.5 71.5v66h407q365 0 365 -307v-819h-484q-174 0 -272 77t-98 222zM313 248q0 -80 51.5 -114t120.5 -34h281v396q-152 20 -281 20q-90 0 -131 -37t-41 -123v-108z" />
<glyph unicode="b" horiz-adv-x="1124" d="M154 -61v1538h200v-412h230q205 0 312.5 -91t107.5 -269v-406q0 -360 -420 -360h-430zM354 100h230q102 0 160.5 55.5t58.5 163.5v365q0 109 -58.5 164t-158.5 55h-232v-803z" />
<glyph unicode="c" horiz-adv-x="1019" d="M127 315v369q0 172 115.5 276.5t302.5 104.5h383v-55q0 -51 -24.5 -79t-100.5 -28h-258q-104 0 -160.5 -56t-56.5 -163v-367q0 -98 57 -157.5t160 -59.5h391v-59q0 -49 -26.5 -75.5t-104.5 -26.5h-260q-186 0 -302 102t-116 274z" />
<glyph unicode="d" horiz-adv-x="1118" d="M119 299v406q0 178 107.5 269t312.5 91h229v412h201v-1538h-430q-420 0 -420 360zM319 319q0 -109 58.5 -164t161.5 -55h229v803h-231q-100 0 -159 -55t-59 -164v-365z" />
<glyph unicode="e" horiz-adv-x="1112" d="M113 299v391q0 205 122.5 304.5t315.5 99.5q199 0 322.5 -96.5t123.5 -266.5v-164q0 -74 -36.5 -110.5t-120.5 -36.5h-527v-121q0 -92 54.5 -145.5t136.5 -53.5h452v-65q0 -49 -24.5 -72.5t-104.5 -23.5h-323q-178 0 -284.5 97t-106.5 263zM313 582h447q23 0 30 8t7 33 v108q0 94 -63.5 147.5t-182.5 53.5q-109 0 -173.5 -54.5t-64.5 -146.5v-149z" />
<glyph unicode="f" horiz-adv-x="878" d="M57 903v162h217v133q0 139 61.5 209t223.5 70h262v-52q0 -111 -133 -110h-129q-84 0 -84 -103v-147h303v-74q0 -43 -38 -65.5t-85 -22.5h-180v-964h-90q-59 0 -85 25.5t-26 86.5v852h-217z" />
<glyph unicode="g" horiz-adv-x="1136" d="M123 299v408q0 174 107.5 266t293.5 92h469v-1255q0 -127 -77.5 -213t-258.5 -86h-436v65q0 96 121 96h309q70 0 106 38t36 104v125h-269q-188 0 -294.5 93t-106.5 267zM324 297q0 -111 60 -154t140 -43h269v803h-269q-98 0 -149 -55t-51 -143v-408z" />
<glyph unicode="h" horiz-adv-x="1163" d="M152 51v1426h200v-412h299q377 0 377 -338v-788h-88q-59 0 -86 25.5t-27 86.5v674q0 178 -176 178h-299v-964h-90q-59 0 -84.5 25.5t-25.5 86.5z" />
<glyph unicode="i" horiz-adv-x="509" d="M147 1346v131h209v-256h-69q-59 0 -99.5 34t-40.5 91zM152 51v1014h200v-1126h-88q-59 0 -85.5 25.5t-26.5 86.5z" />
<glyph unicode="j" horiz-adv-x="645" d="M-23 -426q0 47 30 73.5t81 26.5h88q70 0 92.5 38t22.5 122v1231h201v-1231q0 -168 -77 -245.5t-239 -77.5h-199v63zM287 1346v131h209v-256h-72q-59 0 -98 34t-39 91z" />
<glyph unicode="k" horiz-adv-x="1103" d="M154 51v1426h200v-1538h-88q-59 0 -85.5 25.5t-26.5 86.5zM399 545l432 520h232l-438 -522l462 -604h-223z" />
<glyph unicode="l" horiz-adv-x="514" d="M150 51v1426h200v-1538h-90q-57 0 -83.5 25.5t-26.5 86.5z" />
<glyph unicode="m" horiz-adv-x="1579" d="M141 51v1014h944q182 0 266.5 -77t84.5 -240v-809h-93q-57 0 -82.5 25.5t-25.5 86.5v697q0 156 -150 155h-196v-964h-88q-59 0 -86 25.5t-27 86.5v852h-346v-964h-90q-59 0 -85 25.5t-26 86.5z" />
<glyph unicode="n" horiz-adv-x="1157" d="M143 51v1014h490q213 0 297 -79t84 -275v-772h-90q-59 0 -86 25.5t-27 86.5v660q0 113 -39 152.5t-139 39.5h-289v-964h-86q-61 0 -88 25.5t-27 86.5z" />
<glyph unicode="o" horiz-adv-x="1163" d="M123 354v297q0 442 456.5 442.5t456.5 -442.5v-297q0 -444 -456.5 -444t-456.5 444zM324 354q0 -147 61 -214.5t195 -67.5q135 0 195.5 65.5t60.5 216.5v297q-4 145 -62.5 213t-194 68t-195.5 -70.5t-60 -210.5v-297z" />
<glyph unicode="p" horiz-adv-x="1118" d="M141 -344v1409h441q410 0 409 -377v-375q0 -375 -409 -374h-240v-398h-88q-61 0 -87 27t-26 88zM342 100h240q209 0 209 213v375q0 215 -209 215h-240v-803z" />
<glyph unicode="q" horiz-adv-x="1114" d="M127 313v375q0 377 410 377h440v-1524h-88q-61 0 -87 26.5t-26 88.5v283h-239q-410 -1 -410 374zM328 313q0 -213 209 -213h239v803h-239q-209 0 -209 -215v-375z" />
<glyph unicode="r" horiz-adv-x="835" d="M137 51v733q0 281 295 281h365v-43q0 -119 -146 -119h-219q-94 0 -94 -119v-845h-90q-57 0 -84 25.5t-27 86.5z" />
<glyph unicode="s" horiz-adv-x="954" d="M98 764q0 119 94.5 210t274.5 91h350v-68q0 -94 -129 -94h-221q-86 0 -127 -39t-41 -100q0 -109 121 -146l182 -55q268 -82 268 -311q0 -150 -103 -231.5t-284 -81.5h-379v59q0 102 123 102h256q86 0 136.5 38t50.5 114q0 109 -115 145l-182 62q-139 47 -207 118.5 t-68 186.5z" />
<glyph unicode="t" horiz-adv-x="731" d="M29 903v162h184v369h201v-369h264v-64q0 -47 -28.5 -72.5t-106.5 -25.5h-129v-659q0 -143 98 -144h182v-61q0 -100 -131 -100h-51q-160 0 -229.5 77.5t-69.5 227.5v659h-184z" />
<glyph unicode="u" horiz-adv-x="1136" d="M133 344v721h199v-721q0 -145 46 -194.5t169 -49.5h248v965h200v-1126h-448q-219 0 -316.5 91t-97.5 314z" />
<glyph unicode="v" horiz-adv-x="1038" d="M23 1065h192l305 -946l301 946h187l-373 -1126h-148q-88 0 -118 92z" />
<glyph unicode="w" horiz-adv-x="1503" d="M10 1065h183l217 -893l247 846h185l248 -844l217 891h182l-287 -1126h-117q-94 0 -122 104l-213 696l-244 -800h-107q-63 0 -89.5 25.5t-41.5 84.5z" />
<glyph unicode="x" horiz-adv-x="1120" d="M31 -61l411 565l-399 561h223l287 -412l289 412h227l-401 -561l413 -565h-221l-301 423l-303 -423h-225z" />
<glyph unicode="y" horiz-adv-x="1136" d="M131 299v766h201v-764q0 -104 35 -153q33 -46 115 -46h7q100 2 306 21v942h200v-1253q0 -137 -86 -219t-264 -82h-461v65q0 57 28 81t97 24h336q84 0 117 33.5t33 99.5v143q-117 -12 -314 -18q-11 0 -21 -1q-160 0 -242 89q-87 94 -87 272z" />
<glyph unicode="z" horiz-adv-x="1019" d="M74 -61v163l616 801h-590v162h805v-162l-620 -801h647v-94q0 -70 -76 -69h-782z" />
<glyph unicode="{" horiz-adv-x="901" d="M203 651v152q174 4 174 131v420q0 266 256 266h135v-150q-104 -2 -152.5 -27.5t-48.5 -90.5v-406q0 -164 -90 -221q90 -68 90 -219v-389q0 -72 42 -94.5t159 -22.5v-150h-145q-246 0 -246 256v412q0 125 -174 133z" />
<glyph unicode="|" horiz-adv-x="679" d="M262 -106v1677h182v-1677h-182z" />
<glyph unicode="}" horiz-adv-x="901" d="M154 0q117 0 158.5 22.5t41.5 94.5v389q0 152 90 219q-90 57 -90 221v406q0 66 -48 91t-152 27v150h135q256 0 256 -266v-420q0 -127 174 -131v-152q-174 -8 -174 -133v-412q0 -256 -246 -256h-145v150z" />
<glyph unicode="~" horiz-adv-x="1484" d="M127 522q18 178 112.5 288t258.5 110q119 0 185.5 -43t158.5 -162q41 -55 76.5 -79t89.5 -24q164 0 188 238h182q-8 -178 -96 -289.5t-270 -111.5q-109 0 -179.5 43t-144.5 135q-59 74 -98 102.5t-88 28.5q-160 0 -187 -238z" />
<glyph unicode="&#xa1;" horiz-adv-x="675" d="M217 -111l35 1102h170l37 -1102h-242zM223 1233v233h223v-233h-223z" />
<glyph unicode="&#xa2;" horiz-adv-x="1017" d="M129 315v369q0 172 115.5 276.5t302.5 104.5h112l66 248h182l-65 -248h88v-55q0 -51 -24.5 -79t-100.5 -28h-4l-211 -803h348v-59q0 -49 -26.5 -75.5t-104.5 -26.5h-260l-60 -230h-180l66 258q-115 39 -179.5 130t-64.5 218zM330 317q0 -127 88 -184l200 770h-71 q-104 0 -160.5 -56t-56.5 -163v-367z" />
<glyph unicode="&#xa3;" horiz-adv-x="1161" d="M78 -61v167q70 23 114 105t44 180v221h-148v162h148v318q0 205 125.5 304t345.5 99q180 0 364 -63l-10 -160q-186 61 -359 61q-268 0 -268 -241v-318h314v-59q0 -49 -27 -76t-105 -27h-182v-204q0 -98 -31.5 -186.5t-85.5 -121.5h781v-59q0 -49 -27 -75.5t-104 -26.5 h-889z" />
<glyph unicode="&#xa4;" horiz-adv-x="1148" d="M66 180l118 121q-47 98 -47 238v71q0 137 47 236l-118 123l124 121l111 -115q111 68 285 67q164 0 266 -57l102 105l125 -121l-102 -105q57 -102 57 -254v-71q0 -152 -57 -254l102 -105l-125 -121l-100 103q-102 -57 -268 -58q-174 0 -285 68l-111 -113zM330 539 q0 -137 66.5 -210t189.5 -73t189.5 71.5t66.5 211.5v71q0 125 -62.5 203t-193.5 78q-121 0 -188.5 -71.5t-67.5 -209.5v-71z" />
<glyph unicode="&#xa5;" horiz-adv-x="1382" d="M47 1466h217l426 -737l428 737h219l-454 -759h297v-60q0 -49 -27 -75.5t-104 -26.5h-263v-166h394v-60q0 -49 -27 -75.5t-104 -26.5h-263v-278h-88q-59 0 -85.5 25.5t-26.5 84.5v168h-393v162h393v166h-393v162h299z" />
<glyph unicode="&#xa6;" horiz-adv-x="507" d="M164 -61v561h180v-561h-180zM164 907v559h180v-559h-180z" />
<glyph unicode="&#xa7;" horiz-adv-x="954" d="M84 664q0 74 38 141t114 110q-152 88 -152 252q0 119 94 209t275 90h350v-67q0 -94 -129 -94h-221q-86 0 -127 -38t-41 -100q0 -109 121 -145l182 -55q268 -82 268 -303q0 -174 -137 -261q137 -86 137 -243q0 -150 -104.5 -236t-282.5 -86h-379v60q0 102 123 102h256 q86 0 136 42t50 118q0 100 -114 137l-183 61q-139 47 -206.5 119t-67.5 187zM285 664q0 -109 121 -146l47 -14h16q86 0 136 42t50 118q0 100 -114 137l-6 2h-82q-86 0 -127 -39t-41 -100z" />
<glyph unicode="&#xa8;" horiz-adv-x="1363" d="M225 1196v231h232v-231h-232zM907 1196v231h232v-231h-232z" />
<glyph unicode="&#xa9;" horiz-adv-x="1773" d="M78 709q0 358 226 581t587 223q358 0 584.5 -223t226.5 -581q0 -356 -226.5 -579.5t-584.5 -223.5q-360 0 -586.5 223.5t-226.5 579.5zM242 708.5q0 -290.5 178 -469t469 -178.5t468 178.5t177 469t-177 469t-468 178.5t-469 -178.5t-178 -469zM465 561v266 q0 172 115.5 276.5t302.5 104.5h301v-55q0 -51 -24.5 -78.5t-100.5 -27.5h-176q-104 0 -160.5 -56.5t-56.5 -163.5v-264q0 -98 57 -157.5t160 -59.5h309v-59q0 -49 -26.5 -76t-104.5 -27h-178q-186 0 -302 102.5t-116 274.5z" />
<glyph unicode="&#xaa;" horiz-adv-x="792" d="M94 907v80q0 225 252 221q57 0 156 -12v57q0 72 -84 72h-170q-61 0 -82 19.5t-21 60.5v61h273q248 0 248 -213v-553h-320q-119 0 -185.5 53.5t-66.5 153.5zM258 913q0 -70 88 -69h156v209q-98 10 -156 10q-88 0 -88 -80v-70z" />
<glyph unicode="&#xab;" horiz-adv-x="940" d="M53 526l314 553l147 -84l-268 -469l282 -460l-137 -93zM406 526l313 551l147 -84l-266 -467l279 -460l-138 -93z" />
<glyph unicode="&#xac;" horiz-adv-x="1294" d="M82 862v162h1092v-586h-201v424h-891z" />
<glyph unicode="&#xad;" horiz-adv-x="681" d="M45 666v163h590v-163h-590z" />
<glyph unicode="&#xae;" horiz-adv-x="1783" d="M78 709q0 358 226 581t587 223q358 0 584.5 -223t226.5 -581q0 -356 -226.5 -579.5t-584.5 -223.5q-360 0 -586.5 223.5t-226.5 579.5zM242 708.5q0 -290.5 178 -469t469 -178.5q233 0 399 121h-164l-202 424h-193v-424h-84q-47 0 -69.5 21.5t-22.5 72.5v932h405 q147 0 226.5 -67.5t79.5 -177.5v-93q0 -80 -43 -150.5t-127 -88.5l213 -434q227 178 227 512q0 291 -177 469t-468 178t-469 -178.5t-178 -469zM729 758h229q129 0 129 125v55q0 119 -129 119h-229v-299z" />
<glyph unicode="&#xaf;" horiz-adv-x="1019" d="M-20 1475v163h1058v-163h-1058z" />
<glyph unicode="&#xb0;" horiz-adv-x="757" d="M98 1227q0 119 79 193.5t202 74.5q121 0 200.5 -74.5t79.5 -193.5t-79.5 -194t-200.5 -75q-123 0 -202 74t-79 195zM246 1226.5q0 -59.5 35.5 -95t95 -35.5t96.5 35.5t37 95t-38 96.5t-95 37q-59 0 -95 -37t-36 -96.5z" />
<glyph unicode="&#xb1;" horiz-adv-x="1257" d="M119 688v162h399v385h203v-385h403v-162h-403v-391h-203v391h-399zM139 -61v161h967v-161h-967z" />
<glyph unicode="&#xb2;" horiz-adv-x="681" d="M86 741v93q0 86 80 147l209 158q61 45 61 123q0 45 -34.5 71.5t-94.5 26.5q-66 0 -213 -25v133q129 27 217 27q121 0 200 -61.5t79 -171.5q0 -133 -117 -222l-207 -157q-27 -20 -26 -64v-35h356v-57q0 -76 -80 -76h-332q-55 0 -76.5 18.5t-21.5 71.5z" />
<glyph unicode="&#xb3;" horiz-adv-x="681" d="M80 653v58q0 80 84 67q74 -8 129 -8q76 0 113.5 25.5t37.5 93.5q0 121 -143 121h-119q-31 0 -43 11t-12 42v82h174q125 0 125 121q0 92 -125 92q-68 0 -207 -23l-4 129q123 31 213 31q123 0 202 -56.5t77 -174.5q-4 -125 -88 -177q49 -25 77.5 -78t28.5 -112 q0 -270 -307 -264q-107 4 -213 20z" />
<glyph unicode="&#xb4;" horiz-adv-x="681" d="M152 1196l163 299h226l-187 -242q-25 -33 -49 -45t-69 -12h-84z" />
<glyph unicode="&#xb5;" horiz-adv-x="1155" d="M143 -348l2 1413h199v-721q0 -145 46 -194.5t169 -49.5h248v965h201v-1126h-449q-129 0 -215 30v-428h-88q-59 0 -86 26t-27 85z" />
<glyph unicode="&#xb6;" horiz-adv-x="1089" d="M59 1067q6 193 115 296t303 103h465v-1788h-76q-59 0 -85.5 26t-26.5 85v1514h-168v-1625h-74q-59 0 -86 26t-27 85v860q-141 16 -243.5 125t-96.5 293z" />
<glyph unicode="&#xb7;" horiz-adv-x="681" d="M229 623v233h224v-233h-224z" />
<glyph unicode="&#xb8;" horiz-adv-x="681" d="M141 -475l19 115q61 -6 94 -7q160 0 160 76q0 33 -30 49.5t-128 18.5l53 176h154l-33 -107q152 -18 152 -147q0 -78 -77 -133t-212 -55q-76 0 -152 14z" />
<glyph unicode="&#xb9;" horiz-adv-x="681" d="M160 1333v133h213q66 0 65 -63v-756h-73q-80 0 -80 86v600h-125z" />
<glyph unicode="&#xba;" horiz-adv-x="782" d="M82 983v205q0 299 305 299t305 -299v-205q0 -297 -305 -297t-305 297zM248 983q0 -158 139 -158t139 158v205q0 156 -139 155.5t-139 -155.5v-205z" />
<glyph unicode="&#xbb;" horiz-adv-x="940" d="M53 66l279 460l-266 467l147 84l313 -551l-336 -553zM403 66l283 460l-268 469l147 84l314 -553l-338 -553z" />
<glyph unicode="&#xbc;" horiz-adv-x="1638" d="M152 1333v133h213q66 0 65 -63v-756h-74q-80 0 -80 86v600h-124zM231 -90l920 1556h192l-921 -1556h-191zM864 49v125l307 494q20 33 42 47t63 14h135v-549h76v-65q0 -66 -72 -66h-4v-139h-74q-78 0 -77 90v49h-396zM1032 180h228v357z" />
<glyph unicode="&#xbd;" horiz-adv-x="1638" d="M152 1333v133h213q66 0 65 -63v-756h-74q-80 0 -80 86v600h-124zM190 -90l920 1556h193l-922 -1556h-191zM1006 0v82q0 72 79 147l203 166q68 61 68 129q0 94 -101 94q-94 0 -241 -24v133q152 27 248 27q106 0 176.5 -60.5t70.5 -169.5q0 -117 -123 -231 q-33 -31 -101 -85t-99 -81q-27 -27 -27 -64v-20h357v-57q0 -76 -80 -76h-332q-55 0 -76.5 18.5t-21.5 71.5z" />
<glyph unicode="&#xbe;" horiz-adv-x="1638" d="M80 653v58q0 80 84 67q74 -8 129 -8q76 0 113.5 25.5t37.5 93.5q0 66 -28.5 93.5t-93.5 27.5h-140q-31 0 -43 11t-12 42v82h195q59 0 81.5 27.5t22.5 93.5q0 92 -104 92q-92 0 -232 -23v129q123 31 234 31q121 0 190.5 -56.5t67.5 -174.5q-2 -111 -72 -177 q90 -55 90 -190q0 -270 -307 -264q-107 4 -213 20zM272 -90l920 1556h192l-921 -1556h-191zM864 49v125l307 494q20 33 42 47t63 14h135v-549h76v-65q0 -66 -72 -66h-4v-139h-74q-78 0 -77 90v49h-396zM1032 180h228v357z" />
<glyph unicode="&#xbf;" horiz-adv-x="1114" d="M88 270q0 233 193 373l176 125q39 29 48 60.5t9 97.5v112h201v-118q0 -98 -18.5 -155.5t-67.5 -90.5l-187 -127q-90 -61 -121.5 -124t-31.5 -144q0 -109 78.5 -168.5t224.5 -59.5q195 0 399 62l10 -160q-199 -63 -405 -64q-229 0 -368.5 101.5t-139.5 279.5zM504 1233 v233h223v-233h-223z" />
<glyph unicode="&#xc0;" horiz-adv-x="1343" d="M35 -61l512 1527h174q72 0 98 -73l492 -1454h-205l-178 542q-20 -39 -69.5 -66.5t-115.5 -27.5h-358l-143 -448h-207zM438 553h467l-233 721zM440 1905h226l163 -299h-84q-45 0 -69.5 12t-48.5 45z" />
<glyph unicode="&#xc1;" horiz-adv-x="1343" d="M35 -61l512 1527h174q72 0 98 -73l492 -1454h-205l-178 542q-20 -39 -69.5 -66.5t-115.5 -27.5h-358l-143 -448h-207zM438 553h467l-233 721zM469 1606l164 299h225l-186 -242q-25 -33 -49.5 -45t-69.5 -12h-84z" />
<glyph unicode="&#xc2;" horiz-adv-x="1343" d="M35 -61l512 1527h174q72 0 98 -73l492 -1454h-205l-178 542q-20 -39 -69.5 -66.5t-115.5 -27.5h-358l-143 -448h-207zM332 1599l233 277h199l231 -277h-200l-129 160l-134 -160h-200zM438 553h467l-233 721z" />
<glyph unicode="&#xc3;" horiz-adv-x="1343" d="M35 -61l512 1527h174q72 0 98 -73l492 -1454h-205l-178 542q-20 -39 -69.5 -66.5t-115.5 -27.5h-358l-143 -448h-207zM276 1595q10 111 74 180.5t166 69.5q78 0 176 -53q74 -39 111 -39q68 0 92 92h158q-18 -113 -79 -180.5t-163 -67.5q-88 0 -190 56q-88 39 -103 39 q-68 0 -88 -97h-154zM438 553h467l-233 721z" />
<glyph unicode="&#xc4;" horiz-adv-x="1343" d="M35 -61l512 1527h174q72 0 98 -73l492 -1454h-205l-178 542q-20 -39 -69.5 -66.5t-115.5 -27.5h-358l-143 -448h-207zM362 1628v215h213v-215h-213zM438 553h467l-233 721zM756 1628v215h211v-215h-211z" />
<glyph unicode="&#xc5;" horiz-adv-x="1343" d="M35 -61l512 1527h174q72 0 98 -73l492 -1454h-205l-178 542q-20 -39 -69.5 -66.5t-115.5 -27.5h-358l-143 -448h-207zM438 553h467l-233 721zM451 1753q0 90 60 147.5t153 57.5q94 0 154.5 -56.5t60.5 -148.5t-60.5 -148.5t-154.5 -56.5q-92 0 -152.5 57.5t-60.5 147.5z M575 1753q0 -88 89 -88q90 0 90 88q0 41 -24.5 65.5t-65.5 24.5t-65 -24.5t-24 -65.5z" />
<glyph unicode="&#xc6;" horiz-adv-x="2017" d="M35 -61l676 1527h1220v-51q0 -57 -22.5 -83.5t-89.5 -26.5h-633v-476h680v-57q0 -49 -22.5 -76.5t-88.5 -27.5h-569v-568h770v-57q0 -49 -23.5 -76.5t-87.5 -27.5h-860v491q-55 -43 -139 -43h-395l-199 -448h-217zM524 553h461v752h-129z" />
<glyph unicode="&#xc7;" horiz-adv-x="1173" d="M125 332v747q0 180 121 283.5t336 103.5h497v-57q0 -49 -27.5 -76.5t-105.5 -27.5h-358q-262 0 -262 -252v-707q0 -104 56 -175t161 -71h557v-59q0 -102 -135 -102h-215l-29 -93q152 -18 151 -147q0 -78 -76.5 -133t-211.5 -55q-76 0 -152 14l19 115q61 -6 94 -7 q160 0 160 76q0 33 -30 49.5t-128 18.5l49 162h-61q-180 0 -295 108.5t-115 284.5z" />
<glyph unicode="&#xc8;" horiz-adv-x="1212" d="M152 -61v1527h946v-51q0 -57 -22.5 -83.5t-90.5 -26.5h-633v-476h680v-57q0 -49 -22.5 -76.5t-87.5 -27.5h-570v-568h770v-57q0 -49 -23.5 -76.5t-86.5 -27.5h-860zM412 1905h225l164 -299h-84q-45 0 -69.5 12t-49.5 45z" />
<glyph unicode="&#xc9;" horiz-adv-x="1212" d="M152 -61v1527h946v-51q0 -57 -22.5 -83.5t-90.5 -26.5h-633v-476h680v-57q0 -49 -22.5 -76.5t-87.5 -27.5h-570v-568h770v-57q0 -49 -23.5 -76.5t-86.5 -27.5h-860zM412 1606l163 299h226l-187 -242q-25 -33 -49 -45t-69 -12h-84z" />
<glyph unicode="&#xca;" horiz-adv-x="1212" d="M152 -61v1527h946v-51q0 -57 -22.5 -83.5t-90.5 -26.5h-633v-476h680v-57q0 -49 -22.5 -76.5t-87.5 -27.5h-570v-568h770v-57q0 -49 -23.5 -76.5t-86.5 -27.5h-860zM274 1599l234 277h199l231 -277h-201l-129 160l-133 -160h-201z" />
<glyph unicode="&#xcb;" horiz-adv-x="1212" d="M152 -61v1527h946v-51q0 -57 -22.5 -83.5t-90.5 -26.5h-633v-476h680v-57q0 -49 -22.5 -76.5t-87.5 -27.5h-570v-568h770v-57q0 -49 -23.5 -76.5t-86.5 -27.5h-860zM303 1628v215h213v-215h-213zM696 1628v215h211v-215h-211z" />
<glyph unicode="&#xcc;" horiz-adv-x="538" d="M76 1905h225l164 -299h-84q-45 0 -69.5 12t-49.5 45zM172 49v1417h203v-1527h-92q-59 0 -85 25.5t-26 84.5z" />
<glyph unicode="&#xcd;" horiz-adv-x="538" d="M76 1606l164 299h225l-186 -242q-25 -33 -49.5 -45t-69.5 -12h-84zM172 49v1417h203v-1527h-92q-59 0 -85 25.5t-26 84.5z" />
<glyph unicode="&#xce;" horiz-adv-x="538" d="M-61 1599l233 277h199l231 -277h-201l-129 160l-133 -160h-200zM172 49v1417h203v-1527h-92q-59 0 -85 25.5t-26 84.5z" />
<glyph unicode="&#xcf;" horiz-adv-x="538" d="M-33 1628v215h213v-215h-213zM172 49v1417h203v-1527h-92q-59 0 -85 25.5t-26 84.5zM360 1628v215h211v-215h-211z" />
<glyph unicode="&#xd0;" horiz-adv-x="1470" d="M63 625v161h193v680h580q240 0 362.5 -113.5t122.5 -299.5v-705q0 -184 -123 -296.5t-362 -112.5h-580v686h-193zM455 100h381q133 0 209.5 66.5t76.5 181.5v705q0 123 -75.5 187.5t-210.5 64.5h-381v-519h350v-59q0 -49 -26.5 -75.5t-104.5 -26.5h-219v-525z" />
<glyph unicode="&#xd1;" horiz-adv-x="1370" d="M152 49v1417h632q227 0 330 -85t103 -314v-1128h-89q-59 0 -85.5 25.5t-26.5 84.5v1020q0 135 -50.5 185.5t-181.5 50.5h-432v-1366h-90q-59 0 -84.5 25.5t-25.5 84.5zM283 1595q10 111 73.5 180.5t165.5 69.5q78 0 176 -53q74 -39 111 -39q68 0 92 92h158 q-18 -113 -78.5 -180.5t-163.5 -67.5q-88 0 -190 56q-88 39 -103 39q-68 0 -88 -97h-153z" />
<glyph unicode="&#xd2;" horiz-adv-x="1423" d="M121 559v287q0 315 146.5 482t441.5 167q590 0 589 -649v-289q0 -315 -146 -481t-443 -166q-295 0 -441.5 167t-146.5 482zM322 557q0 -475 387 -475q389 0 389 477v289q0 215 -100.5 345t-288.5 130q-186 0 -286.5 -131t-100.5 -346v-289zM494 1905h225l164 -299h-84 q-45 0 -69.5 12t-49.5 45z" />
<glyph unicode="&#xd3;" horiz-adv-x="1423" d="M121 559v287q0 315 146.5 482t441.5 167q590 0 589 -649v-289q0 -315 -146 -481t-443 -166q-295 0 -441.5 167t-146.5 482zM322 557q0 -475 387 -475q389 0 389 477v289q0 215 -100.5 345t-288.5 130q-186 0 -286.5 -131t-100.5 -346v-289zM494 1606l163 299h226 l-187 -242q-25 -33 -49 -45t-69 -12h-84z" />
<glyph unicode="&#xd4;" horiz-adv-x="1423" d="M121 559v287q0 315 146.5 482t441.5 167q590 0 589 -649v-289q0 -315 -146 -481t-443 -166q-295 0 -441.5 167t-146.5 482zM322 557q0 -475 387 -475q389 0 389 477v289q0 215 -100.5 345t-288.5 130q-186 0 -286.5 -131t-100.5 -346v-289zM356 1599l234 277h198 l232 -277h-201l-129 160l-133 -160h-201z" />
<glyph unicode="&#xd5;" horiz-adv-x="1423" d="M121 559v287q0 315 146.5 482t441.5 167q590 0 589 -649v-289q0 -315 -146 -481t-443 -166q-295 0 -441.5 167t-146.5 482zM301 1595q10 111 73.5 180.5t166.5 69.5q78 0 176 -53q74 -39 110 -39q68 0 93 92h157q-18 -113 -78.5 -180.5t-162.5 -67.5q-88 0 -191 56 q-88 39 -102 39q-68 0 -88 -97h-154zM322 557q0 -475 387 -475q389 0 389 477v289q0 215 -100.5 345t-288.5 130q-186 0 -286.5 -131t-100.5 -346v-289z" />
<glyph unicode="&#xd6;" horiz-adv-x="1423" d="M121 559v287q0 315 146.5 482t441.5 167q590 0 589 -649v-289q0 -315 -146 -481t-443 -166q-295 0 -441.5 167t-146.5 482zM322 557q0 -475 387 -475q389 0 389 477v289q0 215 -100.5 345t-288.5 130q-186 0 -286.5 -131t-100.5 -346v-289zM387 1628v215h213v-215h-213z M780 1628v215h211v-215h-211z" />
<glyph unicode="&#xd7;" horiz-adv-x="1196" d="M162 369l313 315l-313 313l123 121l313 -313l313 313l119 -121l-311 -313l313 -313l-121 -123l-313 313l-315 -313z" />
<glyph unicode="&#xd8;" horiz-adv-x="1423" d="M123 559v287q0 315 146.5 482t441.5 167q117 0 215 -29l55 133h203l-90 -217q207 -158 206 -536v-289q0 -315 -146 -481t-443 -166q-117 0 -215 29l-60 -148h-200l94 229q-207 158 -207 539zM324 557q0 -221 86 -340l446 1079q-70 27 -145 27q-186 0 -286.5 -132 t-100.5 -345v-289zM565 102q61 -20 146 -20q389 0 389 477v289q0 203 -90 330z" />
<glyph unicode="&#xd9;" horiz-adv-x="1384" d="M154 338v1128h200v-1130q0 -135 50.5 -185.5t181.5 -50.5h432v1366h201v-1527h-633q-227 0 -329.5 85t-102.5 314zM498 1905h225l164 -299h-84q-45 0 -69.5 12t-49.5 45z" />
<glyph unicode="&#xda;" horiz-adv-x="1384" d="M154 338v1128h200v-1130q0 -135 50.5 -185.5t181.5 -50.5h432v1366h201v-1527h-633q-227 0 -329.5 85t-102.5 314zM498 1606l164 299h225l-187 -242q-25 -33 -49 -45t-69 -12h-84z" />
<glyph unicode="&#xdb;" horiz-adv-x="1384" d="M154 338v1128h200v-1130q0 -135 50.5 -185.5t181.5 -50.5h432v1366h201v-1527h-633q-227 0 -329.5 85t-102.5 314zM360 1599l234 277h199l231 -277h-201l-129 160l-133 -160h-201z" />
<glyph unicode="&#xdc;" horiz-adv-x="1384" d="M154 338v1128h200v-1130q0 -135 50.5 -185.5t181.5 -50.5h432v1366h201v-1527h-633q-227 0 -329.5 85t-102.5 314zM389 1628v215h213v-215h-213zM782 1628v215h211v-215h-211z" />
<glyph unicode="&#xdd;" horiz-adv-x="1359" d="M33 1466h217l426 -737l428 737h219l-551 -921v-606h-88q-59 0 -86 25.5t-27 84.5v496zM496 1606l163 299h226l-187 -242q-25 -33 -49 -45t-69 -12h-84z" />
<glyph unicode="&#xde;" horiz-adv-x="1249" d="M154 49v1417h198v-333h297q254 0 378 -94.5t124 -329.5q0 -240 -118 -342.5t-367 -102.5h-314v-325h-86q-59 0 -85.5 25.5t-26.5 84.5zM352 426h318q160 0 222 69.5t62 206.5q0 154 -68.5 210.5t-219.5 56.5h-314v-543z" />
<glyph unicode="&#xdf;" horiz-adv-x="1282" d="M154 49v993q0 244 110.5 348.5t333.5 104.5q184 0 296 -85t112 -214q0 -127 -72 -252q-82 -141 -82 -176q0 -27 5 -43t39 -51t101 -82q125 -86 170 -166t45 -176q0 -147 -103 -243.5t-280 -96.5q-250 0 -352 166l139 114q29 -53 89.5 -82.5t121.5 -29.5q78 0 125 48 t47 122q0 55 -24.5 98t-95.5 96q-156 115 -200 172.5t-44 124.5q0 72 86 217q82 141 82 220q0 68 -57.5 116.5t-151.5 48.5q-242 0 -242 -307v-1095h-86q-59 0 -85.5 25.5t-26.5 84.5z" />
<glyph unicode="&#xe0;" horiz-adv-x="1099" d="M113 238v127q0 332 370 321q143 -2 283 -20v92q0 145 -164 145h-276q-78 0 -104.5 24.5t-26.5 71.5v66h407q365 0 365 -307v-819h-484q-174 0 -272 77t-98 222zM313 248q0 -80 51.5 -114t120.5 -34h281v396q-152 20 -281 20q-90 0 -131 -37t-41 -123v-108zM342 1495h225 l164 -299h-84q-45 0 -69.5 12.5t-49.5 44.5z" />
<glyph unicode="&#xe1;" horiz-adv-x="1099" d="M113 238v127q0 332 370 321q143 -2 283 -20v92q0 145 -164 145h-276q-78 0 -104.5 24.5t-26.5 71.5v66h407q365 0 365 -307v-819h-484q-174 0 -272 77t-98 222zM313 248q0 -80 51.5 -114t120.5 -34h281v396q-152 20 -281 20q-90 0 -131 -37t-41 -123v-108zM342 1196 l164 299h225l-186 -242q-25 -33 -49.5 -45t-69.5 -12h-84z" />
<glyph unicode="&#xe2;" horiz-adv-x="1099" d="M113 238v127q0 332 370 321q143 -2 283 -20v92q0 145 -164 145h-276q-78 0 -104.5 24.5t-26.5 71.5v66h407q365 0 365 -307v-819h-484q-174 0 -272 77t-98 222zM205 1190l233 276h199l231 -276h-200l-129 160l-133 -160h-201zM313 248q0 -80 51.5 -114t120.5 -34h281v396 q-152 20 -281 20q-90 0 -131 -37t-41 -123v-108z" />
<glyph unicode="&#xe3;" horiz-adv-x="1099" d="M113 238v127q0 332 370 321q143 -2 283 -20v92q0 145 -164 145h-276q-78 0 -104.5 24.5t-26.5 71.5v66h407q365 0 365 -307v-819h-484q-174 0 -272 77t-98 222zM156 1186q10 111 73.5 180.5t165.5 69.5q78 0 176 -54q74 -39 111 -39q68 0 92 93h158 q-18 -113 -78.5 -180.5t-163.5 -67.5q-88 0 -190 55q-88 39 -103 39q-68 0 -88 -96h-153zM313 248q0 -80 51.5 -114t120.5 -34h281v396q-152 20 -281 20q-90 0 -131 -37t-41 -123v-108z" />
<glyph unicode="&#xe4;" horiz-adv-x="1099" d="M113 238v127q0 332 370 321q143 -2 283 -20v92q0 145 -164 145h-276q-78 0 -104.5 24.5t-26.5 71.5v66h407q365 0 365 -307v-819h-484q-174 0 -272 77t-98 222zM236 1219v215h213v-215h-213zM313 248q0 -80 51.5 -114t120.5 -34h281v396q-152 20 -281 20q-90 0 -131 -37 t-41 -123v-108zM629 1219v215h211v-215h-211z" />
<glyph unicode="&#xe5;" horiz-adv-x="1099" d="M113 238v127q0 332 370 321q143 -2 283 -20v92q0 145 -164 145h-276q-78 0 -104.5 24.5t-26.5 71.5v66h407q365 0 365 -307v-819h-484q-174 0 -272 77t-98 222zM313 248q0 -80 51.5 -114t120.5 -34h281v396q-152 20 -281 20q-90 0 -131 -37t-41 -123v-108zM324 1343.5 q0 90.5 60 147.5t153 57q94 0 154.5 -56t60.5 -148.5t-60.5 -148.5t-154.5 -56q-92 0 -152.5 57t-60.5 147.5zM449 1343q0 -88 88 -88q90 0 90 88q0 41 -24.5 66t-65.5 25t-64.5 -25t-23.5 -66z" />
<glyph unicode="&#xe6;" horiz-adv-x="1761" d="M113 238v127q0 332 370 321q143 -2 283 -20v92q0 145 -164 145h-276q-78 0 -104.5 24.5t-26.5 71.5v66h407q193 0 283 -84q121 113 319 113q197 0 322 -103.5t125 -279.5v-144q0 -74 -37 -110.5t-121 -36.5h-526v-131q2 -88 56 -138.5t134 -50.5h453v-65 q0 -49 -24.5 -72.5t-104.5 -23.5h-324q-180 0 -278 96q-82 -96 -220 -96h-176q-174 0 -272 77t-98 222zM313 248q0 -80 51.5 -114t120.5 -34h138q59 0 101 42t42 100v254q-152 20 -281 20q-90 0 -131 -37t-41 -123v-108zM967 582h446q23 0 30 8t7 33v88q0 96 -64.5 158.5 t-181.5 62.5q-104 0 -168.5 -60.5t-68.5 -152.5v-137z" />
<glyph unicode="&#xe7;" horiz-adv-x="1019" d="M127 315v369q0 172 115.5 276.5t302.5 104.5h383v-55q0 -51 -24.5 -79t-100.5 -28h-258q-104 0 -160.5 -56t-56.5 -163v-367q0 -98 57 -157.5t160 -59.5h391v-59q0 -49 -26.5 -75.5t-104.5 -26.5h-80l-29 -93q152 -18 152 -147q0 -78 -77 -133t-212 -55q-76 0 -151 14 l18 115q61 -6 94 -7q160 0 160 76q0 33 -29.5 49.5t-128.5 18.5l49 162h-26q-186 0 -302 102t-116 274z" />
<glyph unicode="&#xe8;" horiz-adv-x="1112" d="M113 299v391q0 205 122.5 304.5t315.5 99.5q199 0 322.5 -96.5t123.5 -266.5v-164q0 -74 -36.5 -110.5t-120.5 -36.5h-527v-121q0 -92 54.5 -145.5t136.5 -53.5h452v-65q0 -49 -24.5 -72.5t-104.5 -23.5h-323q-178 0 -284.5 97t-106.5 263zM313 582h447q23 0 30 8t7 33 v108q0 94 -63.5 147.5t-182.5 53.5q-109 0 -173.5 -54.5t-64.5 -146.5v-149zM350 1495h225l164 -299h-84q-45 0 -69.5 12.5t-48.5 44.5z" />
<glyph unicode="&#xe9;" horiz-adv-x="1112" d="M113 299v391q0 205 122.5 304.5t315.5 99.5q199 0 322.5 -96.5t123.5 -266.5v-164q0 -74 -36.5 -110.5t-120.5 -36.5h-527v-121q0 -92 54.5 -145.5t136.5 -53.5h452v-65q0 -49 -24.5 -72.5t-104.5 -23.5h-323q-178 0 -284.5 97t-106.5 263zM313 582h447q23 0 30 8t7 33 v108q0 94 -63.5 147.5t-182.5 53.5q-109 0 -173.5 -54.5t-64.5 -146.5v-149zM350 1196l164 299h225l-186 -242q-25 -33 -49.5 -45t-69.5 -12h-84z" />
<glyph unicode="&#xea;" horiz-adv-x="1112" d="M113 299v391q0 205 122.5 304.5t315.5 99.5q199 0 322.5 -96.5t123.5 -266.5v-164q0 -74 -36.5 -110.5t-120.5 -36.5h-527v-121q0 -92 54.5 -145.5t136.5 -53.5h452v-65q0 -49 -24.5 -72.5t-104.5 -23.5h-323q-178 0 -284.5 97t-106.5 263zM213 1190l233 276h199 l232 -276h-201l-129 160l-133 -160h-201zM313 582h447q23 0 30 8t7 33v108q0 94 -63.5 147.5t-182.5 53.5q-109 0 -173.5 -54.5t-64.5 -146.5v-149z" />
<glyph unicode="&#xeb;" horiz-adv-x="1112" d="M113 299v391q0 205 122.5 304.5t315.5 99.5q199 0 322.5 -96.5t123.5 -266.5v-164q0 -74 -36.5 -110.5t-120.5 -36.5h-527v-121q0 -92 54.5 -145.5t136.5 -53.5h452v-65q0 -49 -24.5 -72.5t-104.5 -23.5h-323q-178 0 -284.5 97t-106.5 263zM256 1219v215h213v-215h-213z M313 582h447q23 0 30 8t7 33v108q0 94 -63.5 147.5t-182.5 53.5q-109 0 -173.5 -54.5t-64.5 -146.5v-149zM649 1219v215h211v-215h-211z" />
<glyph unicode="&#xec;" horiz-adv-x="489" d="M49 1495h225l164 -299h-84q-45 0 -69.5 12.5t-48.5 44.5zM141 51v1014h201v-1126h-88q-59 0 -86 25.5t-27 86.5z" />
<glyph unicode="&#xed;" horiz-adv-x="489" d="M39 1196l164 299h225l-186 -242q-25 -33 -49.5 -45t-69.5 -12h-84zM141 51v1014h201v-1126h-88q-59 0 -86 25.5t-27 86.5z" />
<glyph unicode="&#xee;" horiz-adv-x="489" d="M-109 1190l234 276h199l231 -276h-201l-129 160l-133 -160h-201zM141 51v1014h201v-1126h-88q-59 0 -86 25.5t-27 86.5z" />
<glyph unicode="&#xef;" horiz-adv-x="489" d="M-76 1219v215h213v-215h-213zM141 51v1014h201v-1126h-88q-59 0 -86 25.5t-27 86.5zM317 1219v215h211v-215h-211z" />
<glyph unicode="&#xf0;" horiz-adv-x="1193" d="M125 326v270q0 193 113.5 299t336.5 106q195 0 293 -98v68q0 213 -125 301l-245 -221l-121 120l174 158q-6 0 -14.5 1t-14.5 1q-66 0 -205 -10q-84 -4 -84 74v84q147 16 291 16q94 0 187 -20l172 155l123 -123l-125 -110q180 -133 180 -449v-622q0 -205 -124 -311.5 t-349 -102.5q-223 4 -343 107.5t-120 306.5zM319 352q0 -272 269 -272q152 0 216 62.5t64 207.5v228q0 137 -71.5 196.5t-216.5 59.5q-131 0 -196 -60.5t-65 -204.5v-217z" />
<glyph unicode="&#xf1;" horiz-adv-x="1157" d="M143 51v1014h490q213 0 297 -79t84 -275v-772h-90q-59 0 -86 25.5t-27 86.5v660q0 113 -39 152.5t-139 39.5h-289v-964h-86q-61 0 -88 25.5t-27 86.5zM154 1186q10 111 73.5 180.5t165.5 69.5q78 0 176 -54q74 -39 111 -39q68 0 92 93h158q-18 -113 -78.5 -180.5 t-163.5 -67.5q-88 0 -190 55q-88 39 -103 39q-68 0 -88 -96h-153z" />
<glyph unicode="&#xf2;" horiz-adv-x="1163" d="M123 354v297q0 442 456.5 442.5t456.5 -442.5v-297q0 -444 -456.5 -444t-456.5 444zM324 354q0 -137 66.5 -209.5t189 -72.5t189.5 71.5t67 210.5v297q0 125 -62.5 203t-193.5 78q-121 0 -188.5 -72t-67.5 -209v-297zM356 1495h226l163 -299h-83q-45 0 -70 12.5t-49 44.5 z" />
<glyph unicode="&#xf3;" horiz-adv-x="1163" d="M123 354v297q0 442 456.5 442.5t456.5 -442.5v-297q0 -444 -456.5 -444t-456.5 444zM324 354q0 -137 66.5 -209.5t189 -72.5t189.5 71.5t67 210.5v297q0 125 -62.5 203t-193.5 78q-121 0 -188.5 -72t-67.5 -209v-297zM356 1196l164 299h225l-186 -242q-25 -33 -49.5 -45 t-69.5 -12h-84z" />
<glyph unicode="&#xf4;" horiz-adv-x="1163" d="M123 354v297q0 442 456.5 442.5t456.5 -442.5v-297q0 -444 -456.5 -444t-456.5 444zM219 1190l234 276h198l232 -276h-201l-129 160l-133 -160h-201zM324 354q0 -137 66.5 -209.5t189 -72.5t189.5 71.5t67 210.5v297q0 125 -62.5 203t-193.5 78q-121 0 -188.5 -72 t-67.5 -209v-297z" />
<glyph unicode="&#xf5;" horiz-adv-x="1163" d="M123 354v297q0 442 456.5 442.5t456.5 -442.5v-297q0 -444 -456.5 -444t-456.5 444zM164 1186q10 111 73.5 180.5t165.5 69.5q78 0 177 -54q74 -39 110 -39q68 0 92 93h158q-18 -113 -78.5 -180.5t-163.5 -67.5q-88 0 -190 55q-88 39 -102 39q-68 0 -89 -96h-153z M324 354q0 -137 66.5 -209.5t189 -72.5t189.5 71.5t67 210.5v297q0 125 -62.5 203t-193.5 78q-121 0 -188.5 -72t-67.5 -209v-297z" />
<glyph unicode="&#xf6;" horiz-adv-x="1163" d="M123 354v297q0 442 456.5 442.5t456.5 -442.5v-297q0 -444 -456.5 -444t-456.5 444zM250 1219v215h213v-215h-213zM324 354q0 -137 66.5 -209.5t189 -72.5t189.5 71.5t67 210.5v297q0 125 -62.5 203t-193.5 78q-121 0 -188.5 -72t-67.5 -209v-297zM643 1219v215h211v-215 h-211z" />
<glyph unicode="&#xf7;" horiz-adv-x="1026" d="M59 616v162h906v-162h-906zM395 205v233h223v-233h-223zM395 958v234h223v-234h-223z" />
<glyph unicode="&#xf8;" horiz-adv-x="1155" d="M123 354v297q0 442 457 443q61 0 127 -11l71 179h197l-96 -244q158 -106 157 -367v-297q0 -444 -456 -444q-76 0 -138 12l-73 -186h-195l100 254q-151 106 -151 364zM324 354q0 -96 30 -159l291 731q-31 6 -65 6q-121 0 -188.5 -72t-67.5 -209v-297zM506 80q31 -8 74 -8 q123 0 189.5 71.5t66.5 210.5v297q0 94 -37 166z" />
<glyph unicode="&#xf9;" horiz-adv-x="1136" d="M133 344v721h199v-721q0 -145 46 -194.5t169 -49.5h248v965h200v-1126h-448q-219 0 -316.5 91t-97.5 314zM356 1495h226l163 -299h-83q-45 0 -70 12.5t-49 44.5z" />
<glyph unicode="&#xfa;" horiz-adv-x="1136" d="M133 344v721h199v-721q0 -145 46 -194.5t169 -49.5h248v965h200v-1126h-448q-219 0 -316.5 91t-97.5 314zM356 1196l164 299h225l-186 -242q-25 -33 -49.5 -45t-69.5 -12h-84z" />
<glyph unicode="&#xfb;" horiz-adv-x="1136" d="M133 344v721h199v-721q0 -145 46 -194.5t169 -49.5h248v965h200v-1126h-448q-219 0 -316.5 91t-97.5 314zM219 1190l234 276h198l232 -276h-201l-129 160l-133 -160h-201z" />
<glyph unicode="&#xfc;" horiz-adv-x="1136" d="M133 344v721h199v-721q0 -145 46 -194.5t169 -49.5h248v965h200v-1126h-448q-219 0 -316.5 91t-97.5 314zM248 1219v215h213v-215h-213zM641 1219v215h211v-215h-211z" />
<glyph unicode="&#xfd;" horiz-adv-x="1136" d="M131 299v766h201v-764q0 -104 34.5 -152.5t122.5 -46.5q100 2 306 21v942h200v-1253q0 -137 -86 -219t-264 -82h-461v65q0 57 28 81t97 24h336q84 0 117 33.5t33 99.5v143q-117 -12 -314 -18q-176 -6 -263 88t-87 272zM338 1196l164 299h225l-186 -242q-25 -33 -49.5 -45 t-69.5 -12h-84z" />
<glyph unicode="&#xfe;" horiz-adv-x="1101" d="M154 -377v1854h200v-412h219q205 0 312.5 -91t107.5 -269v-406q0 -360 -420 -360h-219v-428h-90q-57 0 -83.5 25.5t-26.5 86.5zM354 100h219q102 0 161 55.5t59 163.5v365q0 109 -58.5 164t-159.5 55h-221v-803z" />
<glyph unicode="&#xff;" horiz-adv-x="1136" d="M131 299v766h201v-764q0 -104 34.5 -152.5t122.5 -46.5q100 2 306 21v942h200v-1253q0 -137 -86 -219t-264 -82h-461v65q0 57 28 81t97 24h336q84 0 117 33.5t33 99.5v143q-117 -12 -314 -18q-176 -6 -263 88t-87 272zM229 1219v215h213v-215h-213zM623 1219v215h211 v-215h-211z" />
<glyph unicode="&#x152;" horiz-adv-x="1968" d="M123 559v287q0 315 146.5 482t441.5 167q117 0 219 -29h932v-51q0 -57 -22.5 -83.5t-90.5 -26.5h-633v-476h680v-57q0 -49 -22.5 -76.5t-87.5 -27.5h-570v-568h770v-57q0 -49 -23.5 -76.5t-86.5 -27.5h-848q-98 -29 -217 -29q-295 0 -441.5 167t-146.5 482zM324 557 q0 -233 98 -354t289 -121q123 0 204 45v1139q-86 57 -204 57q-186 0 -286.5 -132t-100.5 -345v-289z" />
<glyph unicode="&#x153;" horiz-adv-x="1830" d="M123 354v297q0 442 457 443q240 0 354 -123q117 123 340 123q199 0 322.5 -96.5t123.5 -266.5v-164q0 -74 -36.5 -110.5t-120.5 -36.5h-527v-121q0 -92 54.5 -145.5t136.5 -53.5h452v-65q0 -49 -24.5 -72.5t-104.5 -23.5h-323q-180 0 -287 100q-111 -129 -360 -129 q-457 0 -457 444zM324 354q0 -137 66.5 -209.5t189 -72.5t189.5 71.5t67 210.5v297q0 125 -62.5 203t-193.5 78q-121 0 -188.5 -72t-67.5 -209v-297zM1036 582h447q23 0 30 8t7 33v108q0 94 -63.5 147.5t-182.5 53.5q-109 0 -173.5 -54.5t-64.5 -146.5v-149z" />
<glyph unicode="&#x178;" horiz-adv-x="1359" d="M33 1466h217l426 -737l428 737h219l-551 -921v-606h-88q-59 0 -86 25.5t-27 84.5v496zM389 1628v215h213v-215h-213zM782 1628v215h211v-215h-211z" />
<glyph unicode="&#x2c6;" horiz-adv-x="991" d="M164 1190l233 276h199l231 -276h-200l-129 160l-133 -160h-201z" />
<glyph unicode="&#x2dc;" horiz-adv-x="614" d="M-387 123q10 111 73.5 180.5t165.5 69.5q78 0 176 -54q74 -39 111 -39q68 0 92 93h158q-18 -113 -78.5 -180.5t-163.5 -67.5q-88 0 -190 55q-88 39 -103 39q-68 0 -88 -96h-153z" />
<glyph unicode="&#x303;" horiz-adv-x="915" d="M68 1186q10 111 73.5 180.5t165.5 69.5q78 0 176 -54q74 -39 111 -39q68 0 92 93h158q-18 -113 -78.5 -180.5t-163.5 -67.5q-88 0 -190 55q-88 39 -103 39q-68 0 -88 -96h-153z" />
<glyph unicode="&#x2000;" horiz-adv-x="978" />
<glyph unicode="&#x2001;" horiz-adv-x="1957" />
<glyph unicode="&#x2002;" horiz-adv-x="978" />
<glyph unicode="&#x2003;" horiz-adv-x="1957" />
<glyph unicode="&#x2004;" horiz-adv-x="651" />
<glyph unicode="&#x2005;" horiz-adv-x="489" />
<glyph unicode="&#x2006;" horiz-adv-x="325" />
<glyph unicode="&#x2007;" horiz-adv-x="325" />
<glyph unicode="&#x2008;" horiz-adv-x="243" />
<glyph unicode="&#x2009;" horiz-adv-x="391" />
<glyph unicode="&#x200a;" horiz-adv-x="108" />
<glyph unicode="&#x2010;" horiz-adv-x="1132" d="M135 616v162h864v-162h-864z" />
<glyph unicode="&#x2011;" horiz-adv-x="1132" d="M135 616v162h864v-162h-864z" />
<glyph unicode="&#x2012;" horiz-adv-x="1132" d="M135 616v162h864v-162h-864z" />
<glyph unicode="&#x2013;" horiz-adv-x="1024" d="M135 616v162h756v-162h-756z" />
<glyph unicode="&#x2014;" horiz-adv-x="2048" d="M135 616v162h1780v-162h-1780z" />
<glyph unicode="&#x2018;" horiz-adv-x="661" d="M197 1079v213q0 106 50 185t140 116q8 -12 27.5 -36.5t27.5 -36.5q-111 -59 -110 -170v-58h117v-213h-252z" />
<glyph unicode="&#x2019;" horiz-adv-x="661" d="M195 1380v213h251v-213q0 -106 -50 -185t-140 -116q-8 12 -27.5 37t-27.5 37q111 59 110 170v57h-116z" />
<glyph unicode="&#x201c;" horiz-adv-x="1003" d="M188 1079v213q0 106 50.5 185t140.5 116q8 -12 27.5 -36.5t27.5 -36.5q-111 -59 -110 -170v-58h116v-213h-252zM569 1079v213q0 106 50.5 185t140.5 116q8 -12 27.5 -36.5t27.5 -36.5q-111 -59 -110 -170v-58h116v-213h-252z" />
<glyph unicode="&#x201d;" horiz-adv-x="1003" d="M190 1374v213h252v-213q0 -106 -50 -185t-140 -116q-8 12 -27.5 37t-27.5 37q111 59 110 170v57h-117zM571 1374v213h252v-213q0 -106 -50 -185t-140 -116q-8 12 -27.5 37t-27.5 37q111 59 110 170v57h-117z" />
<glyph unicode="&#x2022;" horiz-adv-x="1884" d="M694 614q0 102 73 174t175 72t175 -71.5t73 -174.5q0 -104 -73 -176.5t-175 -72.5t-175 72.5t-73 176.5z" />
<glyph unicode="&#x2026;" horiz-adv-x="1699" d="M215 623v231h231v-231h-231zM733 623v231h232v-231h-232zM1251 623v231h232v-231h-232z" />
<glyph unicode="&#x202f;" horiz-adv-x="391" />
<glyph unicode="&#x2039;" horiz-adv-x="1884" d="M330 614l1478 904v-76l-1335 -828l1335 -825v-80z" />
<glyph unicode="&#x203a;" horiz-adv-x="1884" d="M76 -211l1335 825l-1335 828v76l1478 -904l-1478 -905v80z" />
<glyph unicode="&#x205f;" horiz-adv-x="489" />
<glyph unicode="&#x20ac;" horiz-adv-x="1884" d="M295 360v164h317v305h-317v164h317v86q0 180 121 283.5t336 103.5h498v-57q0 -49 -28 -76.5t-105 -27.5h-359q-262 0 -262 -252v-60h422v-164h-422v-305h422v-164h-422v-14q0 -104 56.5 -175t160.5 -71h557v-59q0 -102 -135 -102h-430q-180 0 -295 108.5t-115 284.5v28 h-317z" />
<glyph unicode="&#x2122;" horiz-adv-x="1884" d="M80 1307v161h743v-55q0 -59 -22.5 -82.5t-93.5 -23.5h-156v-670h-90q-57 0 -84 25.5t-27 85.5v559h-270zM901 690v778h270l195 -403q6 -6 10 0l154 403h272v-831h-135q-61 0 -61 59v545l-148 -377q-18 -39 -86 -39q-63 0 -86 39l-188 377v-604h-135q-62 0 -62 53z" />
<glyph unicode="&#xe000;" horiz-adv-x="1065" d="M0 1065h1065v-1065h-1065v1065z" />
<glyph unicode="&#xfb01;" horiz-adv-x="1388" d="M1026 1346v131h209v-256h-69q-59 0 -99.5 34t-40.5 91zM1031 51v1014h200v-1126h-88q-59 0 -85.5 25.5t-26.5 86.5zM57 903v162h217v133q0 139 61.5 209t223.5 70h262v-52q0 -111 -133 -110h-129q-84 0 -84 -103v-147h303v-74q0 -43 -38 -65.5t-85 -22.5h-180v-964h-90 q-59 0 -85 25.5t-26 86.5v852h-217z" />
<glyph unicode="&#xfb02;" horiz-adv-x="1392" d="M1029 51v1426h200v-1538h-90q-57 0 -83.5 25.5t-26.5 86.5zM57 903v162h217v133q0 139 61.5 209t223.5 70h262v-52q0 -111 -133 -110h-129q-84 0 -84 -103v-147h303v-74q0 -43 -38 -65.5t-85 -22.5h-180v-964h-90q-59 0 -85 25.5t-26 86.5v852h-217z" />
<glyph unicode="&#xfb03;" horiz-adv-x="2267" d="M1904 1346v131h209v-256h-69q-59 0 -99.5 34t-40.5 91zM1909 51v1014h200v-1126h-88q-59 0 -85.5 25.5t-26.5 86.5zM936 903v162h217v133q0 139 61.5 209t223.5 70h262v-52q0 -111 -133 -110h-129q-84 0 -84 -103v-147h303v-74q0 -43 -38 -65.5t-85 -22.5h-180v-964h-90 q-59 0 -85 25.5t-26 86.5v852h-217zM57 903v162h217v133q0 139 61.5 209t223.5 70h262v-52q0 -111 -133 -110h-129q-84 0 -84 -103v-147h303v-74q0 -43 -38 -65.5t-85 -22.5h-180v-964h-90q-59 0 -85 25.5t-26 86.5v852h-217z" />
<glyph unicode="&#xfb04;" horiz-adv-x="2271" d="M1907 51v1426h200v-1538h-90q-57 0 -83.5 25.5t-26.5 86.5zM936 903v162h217v133q0 139 61.5 209t223.5 70h262v-52q0 -111 -133 -110h-129q-84 0 -84 -103v-147h303v-74q0 -43 -38 -65.5t-85 -22.5h-180v-964h-90q-59 0 -85 25.5t-26 86.5v852h-217zM57 903v162h217v133 q0 139 61.5 209t223.5 70h262v-52q0 -111 -133 -110h-129q-84 0 -84 -103v-147h303v-74q0 -43 -38 -65.5t-85 -22.5h-180v-964h-90q-59 0 -85 25.5t-26 86.5v852h-217z" />
</font>
</defs>
</svg>
