<?xml version="1.0" standalone="no"?>
<!DOCTYPE svg PUBLIC "-//W3C//DTD SVG 1.1//EN" "http://www.w3.org/Graphics/SVG/1.1/DTD/svg11.dtd" >
<svg xmlns="http://www.w3.org/2000/svg">
<metadata>
This is a custom SVG webfont generated by Font Squirrel.
Copyright   : Copyright  2011 Hyundai Motor Company and YoonDesign Inc All rights reserved
Designer    : YoonDesign Inc
Foundry     : YoonDesign Inc
Foundry URL : httpwwwyoonfontcokr
</metadata>
<defs>
<font id="ModernHLight" horiz-adv-x="1064" >
<font-face units-per-em="2048" ascent="1638" descent="-410" />
<missing-glyph horiz-adv-x="614" />
<glyph unicode=" "  horiz-adv-x="614" />
<glyph unicode="&#x09;" horiz-adv-x="614" />
<glyph unicode="&#xa0;" horiz-adv-x="614" />
<glyph unicode="!" horiz-adv-x="614" d="M205 1516h205l-39 -1104h-129zM211 -61v202h186v-202h-186z" />
<glyph unicode="&#x22;" horiz-adv-x="864" d="M156 1538h172l-29 -555h-45q-31 0 -49.5 21.5t-20.5 50.5zM512 1538h170l-31 -555h-41q-33 0 -52 21.5t-21 50.5z" />
<glyph unicode="#" horiz-adv-x="1429" d="M57 383v127h262l72 430h-221v127h242l69 428h160l-72 -428h404l69 428h160l-72 -428h238v-72q0 -31 -13.5 -43t-43.5 -12h-201l-70 -430h215v-72q0 -31 -13 -43t-44 -12h-178l-66 -401q-12 -72 -65 -72h-105l76 473h-401l-66 -401q-12 -72 -65 -72h-105l76 473h-242z M479 510h402l71 430h-403z" />
<glyph unicode="$" horiz-adv-x="1073" d="M82 0v51q0 41 22.5 58.5t83.5 17.5h271v539l-111 49q-262 117 -262 356q0 303 373 330v155h157v-151h316v-51q0 -49 -22.5 -63.5t-82.5 -14.5h-211v-528l82 -37q156 -74 226.5 -161t70.5 -202q0 -307 -379 -344v-154h-96q-35 0 -48 17.5t-13 56.5v76h-377zM248 1071 q0 -88 48 -141t163 -109v451q-211 -23 -211 -201zM616 133q219 31 220 213q0 76 -44 133.5t-176 116.5v-463z" />
<glyph unicode="%" horiz-adv-x="1751" d="M82 1102q0 162 85 252t243 90q154 0 239.5 -91t85.5 -251q0 -158 -86 -249t-239 -91q-160 0 -244 88t-84 252zM242 1101.5q0 -100.5 35.5 -156.5t132.5 -56q94 0 128.5 56t34.5 156.5t-34.5 157t-128.5 56.5q-96 0 -132 -56.5t-36 -157zM432 -61l707 1527h168l-680 -1470 q-27 -57 -90 -57h-105zM1006 295q0 162 85 252t242 90q156 0 242 -90t86 -252t-86 -251t-242 -89q-160 0 -243.5 88t-83.5 252zM1165 295q0 -100 37 -156.5t131 -56.5q96 0 131 56.5t35 156.5t-34.5 157.5t-131.5 57.5q-168 0 -168 -215z" />
<glyph unicode="&#x26;" horiz-adv-x="1419" d="M76 301q0 211 221 367l156 106l-109 129q-41 49 -64.5 82t-45 86t-21.5 109q0 139 102.5 227t300.5 88q174 0 288 -89t114 -232q0 -178 -162 -297l-188 -138l389 -426q66 123 69 308l146 -17q-10 -233 -117 -401l225 -264h-184l-129 143q-168 -172 -483 -172 q-254 0 -381 114.5t-127 276.5zM238 299q0 -119 97 -188.5t249 -69.5q119 0 225 38t164 111l-428 476l-158 -111q-149 -104 -149 -256zM373 1182q-2 -82 73 -174l129 -158l168 115q53 37 83 94t30 115q0 88 -64.5 139t-175.5 51q-237 0 -243 -182z" />
<glyph unicode="'" horiz-adv-x="548" d="M193 1538h167l-28 -555h-41q-33 0 -51.5 21.5t-20.5 50.5z" />
<glyph unicode="(" horiz-adv-x="675" d="M174 723q0 195 16 324q45 344 320 516l78 -88q-197 -127 -242 -426q-16 -123 -16 -326q0 -201 16 -326q16 -133 78.5 -248.5t163.5 -179.5l-80 -94q-129 74 -214 216t-104 308q-16 154 -16 324z" />
<glyph unicode=")" horiz-adv-x="675" d="M131 -31q100 63 162.5 179t79.5 249q16 125 16 326q0 203 -16 326q-45 299 -242 426l78 88q274 -172 319 -516q16 -129 17 -324q0 -170 -17 -324q-18 -166 -103 -308t-214 -216z" />
<glyph unicode="*" horiz-adv-x="1144" d="M129 922l365 145l-361 174l90 152l318 -240l-35 385h160l-29 -381l313 221l84 -153l-348 -160l348 -162l-86 -141l-311 211l35 -369h-164l33 367l-316 -207z" />
<glyph unicode="+" horiz-adv-x="1218" d="M113 643v129h413v420h164v-420h418v-129h-418v-430h-164v430h-413z" />
<glyph unicode="," horiz-adv-x="485" d="M135 -61v233h213v-244q0 -190 -166 -270l-45 59q102 66 103 170v52h-105z" />
<glyph unicode="-" horiz-adv-x="1118" d="M135 641v131h850v-131h-850z" />
<glyph unicode="." horiz-adv-x="485" d="M150 -61v233h184v-233h-184z" />
<glyph unicode="/" horiz-adv-x="966" d="M117 -106l583 1644h164l-585 -1644h-162z" />
<glyph unicode="0" d="M72 709q0 201 18.5 336t67.5 242.5t141 157.5t231 50q117 0 199 -34t133 -93t81 -160.5t40 -217.5t10 -281q0 -434 -101 -616.5t-362 -182.5q-264 0 -361 188.5t-97 610.5zM231 709q0 -115 3.5 -193t13.5 -161t30.5 -135t53.5 -96t82 -63.5t116 -19.5q70 0 121 19.5 t84 64.5t53.5 95t29.5 136t11 159t2 194q0 117 -2 186.5t-11 155.5t-28.5 134t-52 94t-84 65.5t-123.5 19.5q-68 0 -116.5 -20.5t-81.5 -63.5t-53.5 -95t-30.5 -133t-13.5 -156.5t-3.5 -186.5z" />
<glyph unicode="1" d="M260 1337v129h358q59 0 60 -59v-1468h-74q-47 0 -67.5 24.5t-20.5 79.5v1294h-256z" />
<glyph unicode="2" d="M102 49v199q0 160 134 254l399 295q160 115 160 301q0 123 -88.5 195.5t-235.5 72.5t-340 -51v131q184 49 340 49q219 0 354.5 -107.5t130.5 -289.5q-2 -250 -225 -406l-387 -286q-80 -55 -80 -170v-168h711v-45q0 -84 -92 -84h-660q-66 0 -93.5 22t-27.5 88z" />
<glyph unicode="3" d="M109 -4q0 78 84 65q102 -18 229 -18q190 0 288.5 68.5t98.5 248.5q0 166 -83 234t-255 68h-229q-23 0 -31 7t-8 29v93h268q160 0 229.5 77.5t69.5 229.5q0 129 -80 198.5t-239 69.5q-162 0 -310 -41v127q176 43 312 43q223 0 353 -100.5t126 -300.5q-2 -131 -58.5 -226.5 t-158.5 -134.5q129 -37 191.5 -133t62.5 -227q0 -473 -549 -463q-156 0 -311 29v57z" />
<glyph unicode="4" d="M39 223v148l551 1011q25 45 53.5 64.5t81.5 19.5h164v-1116h135v-59q0 -68 -66 -68h-69v-284h-72q-45 0 -63.5 24.5t-18.5 79.5v180h-696zM201 350h534v996z" />
<glyph unicode="5" d="M117 -2q0 39 29.5 51t60.5 6q145 -14 231 -16q356 -8 357 346q0 336 -328 336h-330v745h783v-61q0 -39 -18.5 -53.5t-57.5 -14.5h-545v-487h168q254 0 370.5 -117t116.5 -350q0 -473 -512 -473q-135 0 -325 29v59z" />
<glyph unicode="6" d="M90 330v573q0 276 118 419.5t396 143.5q131 0 301 -16v-68q0 -57 -61 -57q-45 0 -125 5t-113 5q-98 0 -169.5 -30.5t-108.5 -71.5t-56.5 -103.5t-23.5 -104.5t-4 -97v-162q102 135 307 135q209 0 316.5 -109.5t107.5 -299.5v-162q0 -203 -113.5 -311.5t-322.5 -108.5 q-213 0 -331 108.5t-118 311.5zM244 354q0 -162 67.5 -234.5t227.5 -72.5q283 0 282 309v107q0 162 -68.5 232.5t-205.5 70.5q-152 0 -227.5 -69.5t-75.5 -223.5v-119z" />
<glyph unicode="7" d="M92 1337v129h823q51 0 52 -45v-63q0 -49 -23 -105l-459 -1257q-27 -57 -75 -57h-101l510 1398h-727z" />
<glyph unicode="8" d="M45 338q0 160 50 259t165 159q-178 82 -178 329q0 209 123 309.5t325.5 100.5t328.5 -101.5t126 -306.5q0 -111 -47 -203.5t-143 -131.5q125 -51 175 -150.5t50 -251.5q0 -205 -121 -322.5t-364 -117.5q-223 0 -356.5 108.5t-133.5 319.5zM207 358q0 -154 83 -235.5 t245 -81.5q174 0 249.5 89t75.5 224q0 168 -75.5 252t-254.5 84q-323 0 -323 -332zM242 1087q0 -281 286 -280q295 0 295 280q0 276 -290.5 276t-290.5 -276z" />
<glyph unicode="9" d="M90 913v162q0 203 113.5 311.5t322.5 108.5q213 0 331 -108.5t118 -311.5v-573q0 -276 -118 -419.5t-396 -143.5q-131 0 -301 16v68q0 57 61 57q45 0 125 -5t113 -5q98 0 169.5 30.5t108.5 71.5t56.5 103.5t23.5 104.5t4 97v162q-102 -135 -307 -135q-209 0 -316.5 109.5 t-107.5 299.5zM244 942q0 -162 68.5 -232.5t205.5 -70.5q152 0 227.5 69.5t75.5 223.5v119q0 162 -67.5 234.5t-227.5 72.5q-283 0 -282 -309v-107z" />
<glyph unicode=":" horiz-adv-x="485" d="M150 184v205h184v-205h-184zM150 1020v205h184v-205h-184z" />
<glyph unicode=";" horiz-adv-x="487" d="M88 -39l82 438h174l-168 -503h-55q-45 -1 -33 65zM158 1020v205h184v-205h-184z" />
<glyph unicode="&#x3c;" horiz-adv-x="1024" d="M162 696l586 652l112 -99l-500 -553l500 -555l-115 -100z" />
<glyph unicode="=" horiz-adv-x="1173" d="M162 414v129h850v-129h-850zM162 905v129h850v-129h-850z" />
<glyph unicode="&#x3e;" horiz-adv-x="1024" d="M162 141l500 555l-500 553l112 99l586 -652l-584 -655z" />
<glyph unicode="?" horiz-adv-x="1062" d="M88 1456q190 59 377 60q227 0 365.5 -104.5t138.5 -295.5q0 -229 -168 -346l-187 -131q-47 -33 -57 -68.5t-10 -111.5v-97h-162v105q0 188 80 242l192 133q150 102 150 272q0 125 -89 198.5t-249 73.5q-158 0 -371 -57zM373 -61v202h184v-202h-184z" />
<glyph unicode="@" horiz-adv-x="1878" d="M74 709q0 381 235.5 617.5t665.5 236.5q401 0 613 -208t212 -556q0 -240 -140 -408t-353 -168h-443q-143 0 -230 72t-87 186v105q0 262 327 262q127 0 277 -14v104q0 70 -33 101.5t-123 31.5h-295q-45 0 -60 14.5t-15 51.5v63h399q154 0 221.5 -73.5t67.5 -211.5v-550 q137 2 230 137t93 295q0 293 -160.5 465t-506.5 172q-352 0 -542.5 -206t-190.5 -523q0 -324 179 -511.5t556 -187.5q168 0 377 60l30 -86q10 -33 -14 -41q-211 -66 -426 -66q-422 0 -643 228.5t-221 607.5zM711 498q0 -80 46 -113t148 -33h246v355q-125 14 -246 14 q-102 0 -148 -31t-46 -110v-82z" />
<glyph unicode="A" horiz-adv-x="1318" d="M35 -61l514 1527h162q23 0 47 -19.5t33 -41.5l495 -1466h-164l-176 540q-53 -82 -137 -82h-461l-145 -458h-168zM391 530h539l-271 830z" />
<glyph unicode="B" horiz-adv-x="1284" d="M150 -61v1527h583q195 0 294 -94t99 -250v-94q0 -102 -41 -183t-118 -116q100 -33 152 -109.5t52 -179.5v-135q0 -184 -123.5 -275t-314.5 -91h-583zM307 68h424q137 0 209 69.5t72 177.5v97q0 111 -69 181.5t-210 70.5h-426v-596zM307 793h428q129 0 181.5 69.5 t52.5 167.5v82q0 98 -61.5 162.5t-172.5 64.5h-428v-546z" />
<glyph unicode="C" horiz-adv-x="1153" d="M125 324v766q0 176 117.5 276t328.5 100h488v-39q0 -43 -23.5 -65.5t-91.5 -22.5h-366q-293 0 -293 -278v-723q0 -115 64.5 -192.5t180.5 -77.5h549v-43q0 -86 -116 -86h-441q-176 0 -286.5 105.5t-110.5 279.5z" />
<glyph unicode="D" horiz-adv-x="1327" d="M152 -61v1527h550q246 0 371 -116.5t125 -309.5v-680q0 -190 -126 -305.5t-370 -115.5h-550zM309 68h393q158 0 248 77.5t90 214.5v680q0 145 -88 222t-250 77h-393v-1271z" />
<glyph unicode="E" horiz-adv-x="1191" d="M152 -61v1527h925v-32q0 -49 -18.5 -72t-73.5 -23h-674v-524h699v-39q0 -43 -18.5 -65.5t-71.5 -22.5h-609v-620h791v-41q0 -88 -90 -88h-860z" />
<glyph unicode="F" horiz-adv-x="1148" d="M152 37v1429h950v-36q0 -90 -101 -91h-690v-524h721v-39q0 -88 -102 -88h-619v-749h-69q-49 0 -69.5 22.5t-20.5 75.5z" />
<glyph unicode="G" horiz-adv-x="1341" d="M137 332v749q0 180 121 282.5t305 102.5h611v-34q0 -49 -24 -71t-85 -22h-502q-117 0 -191.5 -68.5t-74.5 -189.5v-751q0 -115 69.5 -188.5t196.5 -73.5h256q109 0 169.5 69.5t60.5 173.5v281q0 37 -14.5 49t-49.5 12h-225q-55 0 -79 15.5t-24 60.5v53h416 q74 0 104.5 -34.5t30.5 -108.5v-328q0 -182 -104.5 -277t-282.5 -95h-258q-195 0 -310.5 101.5t-115.5 291.5z" />
<glyph unicode="H" horiz-adv-x="1357" d="M152 33v1433h159v-653h729v653h160v-1527h-67q-49 0 -71 21.5t-22 72.5v731q-49 -78 -157 -78h-572v-747h-69q-47 0 -68.5 21.5t-21.5 72.5z" />
<glyph unicode="I" horiz-adv-x="497" d="M172 33v1433h162v-1527h-72q-47 0 -68.5 21.5t-21.5 72.5z" />
<glyph unicode="J" horiz-adv-x="817" d="M27 -14q0 45 22.5 63.5t77.5 18.5h131q127 0 185.5 56t58.5 193v1149h162v-1149q0 -193 -98.5 -285.5t-307.5 -92.5h-231v47z" />
<glyph unicode="K" horiz-adv-x="1232" d="M152 35v1431h159v-1527h-71q-88 0 -88 96zM406 729l591 737h197l-592 -735l623 -792h-129q-68 0 -101 45z" />
<glyph unicode="L" horiz-adv-x="1081" d="M152 -61v1527h159v-1398h733v-41q0 -47 -19 -67.5t-69 -20.5h-804z" />
<glyph unicode="M" horiz-adv-x="1800" d="M158 20v1446h176l518 -972q16 -31 30.5 -40.5t29 0t30.5 40.5l520 972h176v-1527h-69q-47 0 -68.5 21.5t-21.5 70.5v1171l-439 -811q-55 -98 -143 -98q-86 0 -141 96l-439 813v-1263h-69q-90 -1 -90 81z" />
<glyph unicode="N" horiz-adv-x="1351" d="M152 33v1433h626q221 0 320.5 -83t99.5 -306v-1138h-68q-92 0 -92 94v1046q0 150 -57 205t-203 55h-467v-1400h-69q-47 0 -68.5 21.5t-21.5 72.5z" />
<glyph unicode="O" horiz-adv-x="1409" d="M121 557v291q0 313 145.5 480t436 167t436 -167t145.5 -480v-293q0 -313 -145.5 -479t-436 -166t-436 167t-145.5 480zM281 555q0 -264 104 -385t317 -121q215 0 318.5 121t103.5 387v293q0 16 1 32q0 474 -423 474q-229 0 -329 -136q-93 -126 -93 -337q0 -17 1 -35v-293 z" />
<glyph unicode="P" horiz-adv-x="1243" d="M150 33v1433h548q209 0 318.5 -87t109.5 -279v-205q0 -68 -12 -120t-51 -114.5t-132 -98.5t-233 -36h-389v-587h-67q-49 0 -70.5 21.5t-21.5 72.5zM309 657h389q268 0 269 238v205q0 236 -269 235h-389v-678z" />
<glyph unicode="Q" horiz-adv-x="1392" d="M123 557v291q0 315 145.5 481t436.5 166q289 0 435 -167t146 -480v-293q0 -369 -196 -528l200 -263h-92q-78 0 -121 54l-110 137q-109 -45 -262 -45q-291 0 -436.5 167t-145.5 480zM283 555q0 -260 101 -383t320.5 -123t320.5 123t101 385v293q0 236 -100 364 q-106 141 -321 142q-217 0 -322 -139q-100 -129 -100 -369v-293z" />
<glyph unicode="R" horiz-adv-x="1261" d="M150 33v1433h593q209 0 310.5 -88t101.5 -239v-168q0 -121 -66.5 -214t-205.5 -124l321 -694h-172l-311 679h-412v-679h-71q-47 0 -67.5 21.5t-20.5 72.5zM309 750h434q252 0 252 239v117q0 229 -252 229h-434v-585z" />
<glyph unicode="S" horiz-adv-x="1144" d="M82 -14q0 45 21.5 63.5t78.5 18.5h363q346 0 346 251q0 90 -57.5 156t-196.5 127l-272 121q-266 119 -267 383q0 168 117 264t348 96h436v-49q0 -47 -23.5 -62.5t-80.5 -15.5h-332q-303 0 -303 -233q0 -94 50 -153.5t163 -110.5l258 -119q182 -84 252 -173t70 -228 q0 -88 -30 -157t-78 -111t-114.5 -68.5t-134 -36.5t-143.5 -10h-471v47z" />
<glyph unicode="T" horiz-adv-x="1204" d="M37 1339v127h1137v-36q0 -51 -18.5 -71t-78.5 -20h-393v-1400h-70q-90 0 -90 94v1306h-487z" />
<glyph unicode="U" horiz-adv-x="1366" d="M154 330v1136h159v-1138q0 -150 57.5 -205t202.5 -55h467v1398h160v-1527h-627q-221 0 -320 83t-99 308z" />
<glyph unicode="V" horiz-adv-x="1296" d="M27 1466h168l452 -1394l455 1394h168l-510 -1527h-150q-70 0 -92 65z" />
<glyph unicode="W" horiz-adv-x="1849" d="M29 1466h157l320 -1394l340 1259h172l340 -1259l319 1394h156l-356 -1527h-127q-53 0 -84 29.5t-47 92.5l-287 1055l-318 -1177h-114q-115 0 -142 118z" />
<glyph unicode="X" horiz-adv-x="1288" d="M37 -61l512 768l-504 759h176l418 -628l416 628h180l-502 -759l508 -768h-180l-422 632l-418 -632h-184z" />
<glyph unicode="Y" horiz-adv-x="1318" d="M33 1466h170l450 -778l455 778h174l-553 -919v-608h-67q-92 0 -93 94v516z" />
<glyph unicode="Z" horiz-adv-x="1249" d="M68 -61v153l901 1247h-877v127h1045v-143l-908 -1255h942v-86q0 -43 -47 -43h-1056z" />
<glyph unicode="[" horiz-adv-x="872" d="M272 -156v1774h451v-129h-289v-1516h289v-129h-451z" />
<glyph unicode="\" horiz-adv-x="1026" d="M123 1538h164l585 -1644h-163z" />
<glyph unicode="]" horiz-adv-x="872" d="M162 -27h287v1516h-287v129h448v-1774h-448v129z" />
<glyph unicode="^" horiz-adv-x="1198" d="M170 1186l344 485h176l342 -485h-174l-256 364l-254 -364h-178z" />
<glyph unicode="_" horiz-adv-x="1226" d="M211 -117h813v-129h-813v129z" />
<glyph unicode="`" horiz-adv-x="612" d="M127 1638l160 74l215 -493l-39 -19q-33 -14 -57.5 -3t-38.5 38z" />
<glyph unicode="a" horiz-adv-x="1083" d="M113 229v129q0 316 338 316h22q156 -2 315 -27v117q0 170 -192 170h-287q-68 0 -90 20.5t-22 61.5v49h399q354 0 354 -301v-825h-477q-168 0 -264 74.5t-96 215.5zM272 240q0 -92 60.5 -132t142.5 -40h313v444q-170 23 -313 23q-109 0 -156 -42t-47 -143v-110z" />
<glyph unicode="b" horiz-adv-x="1110" d="M154 -61v1538h161v-412h260q203 0 308.5 -89t105.5 -265v-418q0 -354 -414 -354h-421zM315 68h260q117 0 184.5 62.5t67.5 182.5v375q0 123 -66.5 184.5t-182.5 61.5h-263v-866z" />
<glyph unicode="c" horiz-adv-x="1003" d="M127 309v379q0 170 113.5 273.5t296.5 103.5h374v-39q0 -45 -21.5 -68.5t-84.5 -23.5h-268q-121 0 -184.5 -62.5t-63.5 -183.5v-377q0 -111 65.5 -177t182.5 -66h383v-43q0 -41 -23 -63.5t-90 -22.5h-270q-182 0 -296 100t-114 270z" />
<glyph unicode="d" horiz-adv-x="1101" d="M119 293v418q0 354 411 354h261v412h161v-1538h-422q-411 0 -411 354zM279 313q0 -121 67.5 -183t183.5 -62h261v866h-263q-117 0 -183 -61.5t-66 -184.5v-375z" />
<glyph unicode="e" horiz-adv-x="1099" d="M113 293v401q0 203 120.5 301.5t311.5 98.5q197 0 318.5 -94.5t121.5 -262.5v-168q0 -68 -32.5 -100.5t-108.5 -32.5h-570v-143q0 -104 63.5 -164.5t158.5 -60.5h446v-50q0 -41 -21.5 -60t-89.5 -19h-335q-172 0 -277.5 96t-105.5 258zM274 565h488q39 0 50 12.5t11 49.5 v110q0 106 -72.5 167t-205.5 61q-125 0 -198 -61.5t-73 -166.5v-172z" />
<glyph unicode="f" horiz-adv-x="862" d="M57 934v131h226v143q0 133 58 201t214 68h250v-33q0 -96 -115 -96h-135q-111 0 -111 -125v-158h316v-57q0 -37 -32 -55.5t-73 -18.5h-211v-995h-69q-49 0 -70.5 22.5t-21.5 75.5v897h-226z" />
<glyph unicode="g" horiz-adv-x="1122" d="M123 295v418q0 172 105.5 262t285.5 90h465v-1264q0 -123 -77 -206.5t-249 -83.5h-430v49q0 80 103 80h321q84 0 127 45t43 120v134h-303q-184 0 -287.5 92t-103.5 264zM283 291q0 -125 69.5 -174t161.5 -49h303v866h-303q-115 0 -173 -61.5t-58 -161.5v-420z" />
<glyph unicode="h" horiz-adv-x="1148" d="M152 37v1440h161v-412h332q369 0 369 -332v-794h-68q-94 0 -94 98v694q0 203 -207 203h-332v-995h-71q-47 0 -68.5 22.5t-21.5 75.5z" />
<glyph unicode="i" horiz-adv-x="471" d="M147 1360v117h170v-228h-49q-51 0 -86 30t-35 81zM152 37v1028h161v-1126h-67q-51 0 -72.5 22.5t-21.5 75.5z" />
<glyph unicode="j" horiz-adv-x="616" d="M-23 -442q0 41 26 62.5t65 21.5h92q88 0 115.5 44t27.5 142v1237h160v-1237q0 -166 -74 -241.5t-229 -75.5h-183v47zM299 1360v117h168v-228h-49q-51 0 -85 30t-34 81z" />
<glyph unicode="k" horiz-adv-x="1075" d="M154 37v1440h159v-1538h-67q-49 0 -70.5 22.5t-21.5 75.5zM391 547l453 518h184l-459 -520l490 -606h-115q-63 0 -96 38z" />
<glyph unicode="l" horiz-adv-x="475" d="M150 37v1440h161v-1538h-71q-47 0 -68.5 22.5t-21.5 75.5z" />
<glyph unicode="m" horiz-adv-x="1579" d="M141 37v1028h955q176 0 258 -75t82 -236v-815h-74q-47 0 -67.5 22.5t-20.5 75.5v717q0 180 -178 180h-226v-995h-69q-49 0 -70.5 22.5t-21.5 75.5v897h-406v-995h-72q-47 0 -68.5 22.5t-21.5 75.5z" />
<glyph unicode="n" horiz-adv-x="1142" d="M143 37v1028h484q207 0 289.5 -78t82.5 -270v-778h-69q-49 0 -71.5 22.5t-22.5 75.5v680q0 127 -45.5 172t-163.5 45h-322v-995h-67q-49 0 -72 22.5t-23 75.5z" />
<glyph unicode="o" horiz-adv-x="1150" d="M123 373v262q0 240 113.5 349.5t336.5 109.5q227 0 339 -107.5t112 -351.5v-262q0 -244 -111.5 -353.5t-339.5 -109.5q-223 0 -336.5 109.5t-113.5 353.5zM285 373q0 -180 68.5 -256t220 -76t220 73.5t68.5 258.5v262q0 176 -63 248q-70 82 -226 82q-150 0 -219 -75 t-69 -255v-262z" />
<glyph unicode="p" horiz-adv-x="1103" d="M141 -360v1425h432q403 0 404 -373v-385q0 -369 -404 -368h-270v-398h-70q-49 0 -70.5 23t-21.5 76zM303 68h270q242 0 242 239v385q0 242 -242 242h-270v-866z" />
<glyph unicode="q" horiz-adv-x="1097" d="M127 307v385q0 373 401 373h433v-1524h-68q-49 0 -70.5 22.5t-21.5 76.5v299h-273q-401 -1 -401 368zM289 307q0 -240 239 -239h273v866h-273q-240 0 -239 -242v-385z" />
<glyph unicode="r" horiz-adv-x="813" d="M137 37v756q0 272 283 272h354v-27q0 -104 -127 -104h-227q-123 0 -123 -141v-854h-70q-47 0 -68.5 22.5t-21.5 75.5z" />
<glyph unicode="s" horiz-adv-x="935" d="M98 776q0 115 91.5 202t267.5 87h340v-51q0 -80 -111 -80h-229q-100 0 -148.5 -44t-48.5 -114q0 -127 141 -170l189 -57q262 -80 262 -305q0 -145 -101.5 -225t-277.5 -80h-369v43q0 86 105 86h264q102 0 159.5 44t57.5 132q0 125 -135 170l-188 63q-137 47 -203 116.5 t-66 182.5z" />
<glyph unicode="t" horiz-adv-x="708" d="M29 934v131h190v371h162v-371h274v-47q0 -84 -116 -84h-158v-723q0 -74 25.5 -108.5t99.5 -34.5h166v-45q0 -84 -113 -84h-53q-156 0 -221.5 64.5t-65.5 207.5v723h-190z" />
<glyph unicode="u" horiz-adv-x="1122" d="M133 319v746h160v-746q0 -154 52 -202.5t194 -48.5h280v997h162v-1126h-442q-217 0 -311.5 80.5t-94.5 299.5z" />
<glyph unicode="v" horiz-adv-x="1015" d="M23 1065h153l334 -1010l330 1010h145l-373 -1126h-137q-76 0 -102 81z" />
<glyph unicode="w" horiz-adv-x="1499" d="M10 1065h144l241 -967l275 920h153l279 -920l237 967h146l-289 -1126h-104q-78 0 -105 94l-239 776l-267 -870h-98q-51 0 -71.5 23.5t-35.5 76.5z" />
<glyph unicode="x" horiz-adv-x="1079" d="M31 -61l413 565l-399 561h170l317 -453l320 453h174l-401 -561l415 -565h-172l-329 456l-334 -456h-174z" />
<glyph unicode="y" horiz-adv-x="1122" d="M131 293v772h162v-770q0 -119 41 -174q39 -53 138 -53h7q133 2 340 20v977h162v-1262q0 -133 -84 -212.5t-256 -79.5h-455v49q0 49 23.5 69.5t83.5 20.5h348q98 0 138 39t40 116v154q-141 -14 -348 -20q-7 0 -14 -1q-159 0 -241 89q-85 92 -85 266z" />
<glyph unicode="z" horiz-adv-x="1005" d="M74 -61v145l659 850h-631v131h789v-143l-666 -852h693v-78q0 -53 -56 -53h-788z" />
<glyph unicode="{" horiz-adv-x="874" d="M203 668v118q180 10 180 156v420q0 258 242 258h116v-117q-109 -4 -157.5 -34.5t-48.5 -108.5v-406q0 -158 -107 -227q106 -80 107 -229v-389q0 -82 46 -111t160 -31v-117h-127q-231 0 -231 248v412q0 72 -50 112t-130 46z" />
<glyph unicode="|" horiz-adv-x="638" d="M262 -106v1677h141v-1677h-141z" />
<glyph unicode="}" horiz-adv-x="876" d="M154 -33q117 2 162.5 30t45.5 112v389q0 152 107 229q-106 68 -107 227v406q0 78 -50 108.5t-158 34.5v117h116q244 0 244 -258v-420q0 -145 180 -156v-118q-82 -6 -131 -46t-49 -112v-412q0 -248 -233 -248h-127v117z" />
<glyph unicode="~" horiz-adv-x="1482" d="M127 545q12 168 101 271.5t245 103.5q111 0 188.5 -49.5t161.5 -155.5q90 -115 213 -115q193 0 195 248h145q0 -166 -82 -272.5t-254 -106.5q-193 0 -338 178q-61 78 -112 111t-113 33q-90 0 -141 -66t-60 -180h-149z" />
<glyph unicode="&#xa1;" horiz-adv-x="614" d="M205 -111l37 1104h129l39 -1104h-205zM211 1262v204h186v-204h-186z" />
<glyph unicode="&#xa2;" horiz-adv-x="1001" d="M129 309v379q0 170 113.5 273.5t296.5 103.5h135l69 248h140l-70 -248h100v-39q0 -45 -20.5 -68.5t-85.5 -23.5h-29l-241 -866h385v-43q0 -41 -22.5 -63.5t-90.5 -22.5h-270q-25 0 -37 2l-64 -232h-139l70 256q-113 39 -176.5 129t-63.5 215zM291 311q0 -152 115 -215 l231 838h-98q-121 0 -184.5 -62.5t-63.5 -183.5v-377z" />
<glyph unicode="&#xa3;" horiz-adv-x="1153" d="M78 -61v141q74 33 119 119t45 190v238h-158v129h158v340q0 201 125 300t342 99q164 0 354 -59l-10 -125q-170 53 -351 53q-301 0 -301 -268v-340h326v-41q0 -41 -22.5 -64.5t-90.5 -23.5h-213v-234q0 -215 -168 -325h857v-43q0 -41 -23 -63.5t-90 -22.5h-899z" />
<glyph unicode="&#xa4;" horiz-adv-x="1124" d="M66 170l116 121q-51 98 -51 244v79q0 147 53 244l-118 125l96 98l114 -118q111 80 295 79q174 0 281 -67l102 104l99 -98l-103 -102q63 -104 64 -265v-75q0 -162 -64 -267l105 -102l-101 -98l-100 102q-106 -70 -283 -70q-193 0 -299 80l-110 -112zM283 535 q0 -150 74.5 -231t214 -81t215 79t75.5 233v79q0 139 -70.5 224.5t-220.5 85.5q-137 0 -212.5 -80t-75.5 -230v-79z" />
<glyph unicode="&#xa5;" horiz-adv-x="1355" d="M47 1466h172l457 -784l459 784h176l-477 -792h327v-43q0 -41 -22.5 -63.5t-89.5 -22.5h-295v-199h407v-43q0 -41 -22.5 -63.5t-89.5 -22.5h-295v-278h-70q-49 0 -70.5 21.5t-21.5 74.5v182h-408v129h408v199h-408v129h330z" />
<glyph unicode="&#xa6;" horiz-adv-x="468" d="M164 -61v542h141v-542h-141zM164 926v540h141v-540h-141z" />
<glyph unicode="&#xa7;" horiz-adv-x="935" d="M84 670q0 78 43 147.5t127 108.5q-170 84 -170 254q0 113 92 199.5t266 86.5h340v-51q0 -78 -110 -78h-230q-100 0 -148 -44t-48 -113q0 -123 141 -166l188 -58q262 -80 263 -294q0 -180 -160 -261q160 -82 160 -249q0 -147 -102.5 -230.5t-276.5 -83.5h-369v43 q0 86 105 86h264q100 0 158.5 47t58.5 138q0 59 -31 94t-104 59l-191 66q-135 47 -200.5 116.5t-65.5 182.5zM246 670q0 -127 141 -170l74 -23q98 0 156.5 48t58.5 137q0 117 -135 161l-31 11h-68q-100 0 -148 -46t-48 -118z" />
<glyph unicode="&#xa8;" horiz-adv-x="1363" d="M250 1200v205h186v-205h-186zM930 1200v205h186v-205h-186z" />
<glyph unicode="&#xa9;" horiz-adv-x="1773" d="M78 711q0 354 228.5 578t584.5 224t583.5 -224t227.5 -578q0 -356 -227.5 -580.5t-583.5 -224.5t-584.5 224.5t-228.5 580.5zM201 711q0 -301 190.5 -491.5t497.5 -190.5q303 0 493.5 189.5t190.5 492.5q0 301 -189.5 489.5t-494.5 188.5t-496.5 -189.5t-191.5 -488.5z M477 557v277q0 170 114 272t296 102h289v-37q0 -45 -20.5 -68.5t-86.5 -23.5h-182q-121 0 -184.5 -62.5t-63.5 -182.5v-275q0 -111 65.5 -177.5t182.5 -66.5h297v-43q0 -41 -22.5 -64.5t-90.5 -23.5h-184q-182 0 -296 101.5t-114 271.5z" />
<glyph unicode="&#xaa;" horiz-adv-x="765" d="M94 895v88q0 213 238 209q49 0 184 -16v90q0 92 -110 92h-177q-49 0 -65.5 15.5t-16.5 47.5v45h259q233 0 233 -200v-566h-307q-113 0 -175.5 50.5t-62.5 144.5zM217 901q0 -90 115 -90h184v256q-111 12 -184 12q-59 0 -87 -22.5t-28 -77.5v-78z" />
<glyph unicode="&#xab;" horiz-adv-x="921" d="M84 526l336 551l104 -69l-291 -484l291 -481l-104 -70zM395 526l336 551l105 -69l-291 -484l291 -481l-105 -70z" />
<glyph unicode="&#xac;" horiz-adv-x="1288" d="M82 895v129h1085v-586h-161v457h-924z" />
<glyph unicode="&#xad;" horiz-adv-x="657" d="M45 684v131h565v-131h-565z" />
<glyph unicode="&#xae;" horiz-adv-x="1783" d="M88 711q0 354 228.5 578t584.5 224t583.5 -224t227.5 -578q0 -356 -227.5 -580.5t-583.5 -224.5t-584.5 224.5t-228.5 580.5zM211 711q0 -301 190.5 -491.5t497.5 -190.5q303 0 493.5 189.5t190.5 492.5q0 301 -189.5 489.5t-494.5 188.5t-496.5 -189.5t-191.5 -488.5z M571 262v946h398q143 0 219 -64.5t76 -170.5v-94q0 -78 -46.5 -147.5t-140.5 -90.5l207 -459h-145l-191 441h-239v-441h-64q-74 0 -74 80zM709 741h260q158 0 157 150v57q0 141 -157 142h-260v-349z" />
<glyph unicode="&#xaf;" horiz-adv-x="1013" d="M-20 1507v131h1052v-131h-1052z" />
<glyph unicode="&#xb0;" horiz-adv-x="731" d="M98 1224.5q0 116.5 75 188.5t191.5 72t192.5 -73t76 -187q0 -117 -76 -188.5t-192.5 -71.5t-191.5 71.5t-75 188zM205 1225q0 -72 43 -114t114.5 -42t116.5 43t45 112.5t-45 113.5t-116.5 44t-114.5 -43.5t-43 -113.5z" />
<glyph unicode="&#xb1;" horiz-adv-x="1247" d="M119 707v129h413v399h164v-399h418v-129h-418v-408h-164v408h-413zM139 -61v129h957v-129h-957z" />
<glyph unicode="&#xb2;" horiz-adv-x="655" d="M106 725v111q0 90 74 141l217 149q72 49 72 146q0 53 -43 87t-113 34q-78 0 -198 -23v100q127 25 200 25q115 0 191 -59.5t76 -163.5q0 -139 -113 -219l-215 -152q-35 -25 -35 -80v-69h369v-41q0 -59 -60 -60h-344q-45 0 -61.5 14.5t-16.5 59.5z" />
<glyph unicode="&#xb3;" horiz-adv-x="655" d="M100 651v43q0 27 15.5 41.5t44.5 9.5q61 -10 137 -10q90 0 135 31t45 113q0 145 -172 145h-123q-33 0 -32 37v65h155q154 0 154 148q0 57 -44 87t-118 30q-70 0 -182 -21l-4 96q119 29 188 29q119 0 196.5 -54.5t77.5 -168.5q0 -63 -29.5 -116.5t-80.5 -76.5 q129 -51 129 -192q0 -264 -295 -254q-123 4 -197 18z" />
<glyph unicode="&#xb4;" horiz-adv-x="634" d="M152 1196l163 299h179l-187 -248q-25 -31 -45 -41t-59 -10h-51z" />
<glyph unicode="&#xb5;" horiz-adv-x="1140" d="M143 -365l2 1430h160v-758q0 -141 55.5 -190t190.5 -49h280v997h162v-1126h-442q-156 0 -246 45v-443h-69q-49 0 -71 21.5t-22 72.5z" />
<glyph unicode="&#xb6;" horiz-adv-x="1075" d="M59 1071q6 188 122 291.5t308 103.5h439v-1788h-56q-49 0 -70.5 23t-21.5 74v1560h-200v-1657h-54q-94 0 -94 97v880q-150 16 -264.5 125t-108.5 291z" />
<glyph unicode="&#xb7;" horiz-adv-x="645" d="M229 637v205h187v-205h-187z" />
<glyph unicode="&#xb8;" horiz-adv-x="647" d="M143 -467l15 94q63 -6 92 -6q170 0 170 78q0 45 -36 64.5t-146 25.5l55 164h125l-29 -88q158 -25 158 -162q0 -180 -277 -180q-66 0 -127 10z" />
<glyph unicode="&#xb9;" horiz-adv-x="655" d="M201 1366v100h196q45 0 45 -47v-772h-53q-59 0 -59 70v649h-129z" />
<glyph unicode="&#xba;" horiz-adv-x="759" d="M82 975v221q0 291 295 291q293 0 293 -291v-221q0 -289 -293 -289q-295 0 -295 289zM209 975q0 -184 168 -184q166 0 166 184v221q0 180 -166 180q-168 0 -168 -180v-221z" />
<glyph unicode="&#xbb;" horiz-adv-x="921" d="M84 43l291 481l-291 484l104 69l336 -551l-336 -553zM395 43l291 481l-291 484l105 69l336 -551l-336 -553z" />
<glyph unicode="&#xbc;" horiz-adv-x="1638" d="M152 1366v100h196q45 0 45 -47v-772h-53q-59 0 -59 70v649h-129zM252 -90l919 1556h148l-920 -1556h-147zM889 59v107l313 508q33 55 90 55h117v-571h78v-49q0 -49 -51 -50h-27v-149h-53q-57 0 -58 76v73h-409zM1001 158h297v467z" />
<glyph unicode="&#xbd;" horiz-adv-x="1638" d="M152 1366v100h196q45 0 45 -47v-772h-53q-59 0 -59 70v649h-129zM211 -90l919 1556h148l-920 -1556h-147zM1032 -14v110q0 90 74 142l217 149q72 49 72 145q0 53 -43 87t-113 34q-78 0 -199 -22v100q127 25 201 25q115 0 190.5 -59.5t75.5 -164.5q0 -139 -112 -219 l-215 -151q-35 -25 -35 -80v-70h368v-41q0 -59 -59 -59h-344q-45 0 -61.5 14.5t-16.5 59.5z" />
<glyph unicode="&#xbe;" horiz-adv-x="1638" d="M121 651v43q0 27 15.5 41.5t43.5 9.5q61 -10 137 -10q90 0 135.5 31t45.5 113q0 145 -172 145h-123q-33 0 -33 37v65h156q154 0 153 148q0 57 -44 87t-118 30q-70 0 -182 -21l-4 96q119 29 188 29q119 0 197 -54.5t78 -168.5q0 -63 -29.5 -116.5t-81.5 -76.5 q129 -51 129 -192q0 -264 -295 -254q-122 4 -196 18zM338 -90l919 1556h148l-920 -1556h-147zM928 55v107l315 512q33 55 88 55h117v-575h80v-50q0 -49 -51 -49h-29v-145h-53q-57 0 -58 76v69h-409zM1040 154h297v471z" />
<glyph unicode="&#xbf;" horiz-adv-x="1081" d="M88 287q0 229 168 346l186 131q47 33 57.5 68.5t10.5 111.5v96h162v-104q0 -188 -80 -242l-193 -133q-150 -102 -149 -272q0 -125 89 -199t249 -74q158 0 370 58l11 -127q-190 -59 -377 -60q-227 0 -365.5 105t-138.5 295zM500 1262v202h184v-202h-184z" />
<glyph unicode="&#xc0;" horiz-adv-x="1318" d="M35 -61l514 1527h162q23 0 47 -19.5t33 -41.5l495 -1466h-164l-176 540q-53 -82 -137 -82h-461l-145 -458h-168zM391 530h539l-271 830zM496 1876h178l149 -270h-51q-39 0 -59.5 10t-44.5 41z" />
<glyph unicode="&#xc1;" horiz-adv-x="1318" d="M35 -61l514 1527h162q23 0 47 -19.5t33 -41.5l495 -1466h-164l-176 540q-53 -82 -137 -82h-461l-145 -458h-168zM391 530h539l-271 830zM494 1606l149 270h178l-172 -219q-25 -31 -45 -41t-59 -10h-51z" />
<glyph unicode="&#xc2;" horiz-adv-x="1318" d="M35 -61l514 1527h162q23 0 47 -19.5t33 -41.5l495 -1466h-164l-176 540q-53 -82 -137 -82h-461l-145 -458h-168zM356 1599l219 269h164l219 -269h-153l-148 185l-147 -185h-154zM391 530h539l-271 830z" />
<glyph unicode="&#xc3;" horiz-adv-x="1318" d="M35 -61l514 1527h162q23 0 47 -19.5t33 -41.5l495 -1466h-164l-176 540q-53 -82 -137 -82h-461l-145 -458h-168zM291 1616q0 98 65.5 159.5t161.5 61.5q59 0 162 -53q90 -47 121 -47q94 0 110 100h119q0 -96 -64.5 -157.5t-158.5 -61.5q-16 0 -30.5 1t-30 5t-23.5 6 t-24.5 9.5t-20.5 9.5l-23 11q-18 9 -20 11q-6 2 -26.5 14.5t-29 15.5t-25.5 8t-34 5q-96 0 -110 -98h-119zM391 530h539l-271 830z" />
<glyph unicode="&#xc4;" horiz-adv-x="1318" d="M35 -61l514 1527h162q23 0 47 -19.5t33 -41.5l495 -1466h-164l-176 540q-53 -82 -137 -82h-461l-145 -458h-168zM391 530h539l-271 830zM395 1628v184h174v-184h-174zM750 1628v184h172v-184h-172z" />
<glyph unicode="&#xc5;" horiz-adv-x="1318" d="M35 -61l514 1527h162q23 0 47 -19.5t33 -41.5l495 -1466h-164l-176 540q-53 -82 -137 -82h-461l-145 -458h-168zM391 530h539l-271 830zM442 1753q0 90 60.5 146.5t152.5 56.5q94 0 154.5 -55.5t60.5 -147.5t-60 -147.5t-155 -55.5q-92 0 -152.5 56.5t-60.5 146.5z M541 1753q0 -49 31.5 -80t82.5 -31q53 0 85 31t32 80t-31.5 81t-85.5 32q-51 0 -82.5 -32t-31.5 -81z" />
<glyph unicode="&#xc6;" horiz-adv-x="2011" d="M35 -61l678 1527h1212v-32q0 -49 -18.5 -72t-73.5 -23h-672v-524h697v-39q0 -43 -18.5 -65.5t-72.5 -22.5h-606v-620h789v-41q0 -88 -90 -88h-859v507q-51 -47 -137 -47h-452l-203 -460h-174zM471 532h530v807h-174z" />
<glyph unicode="&#xc7;" horiz-adv-x="1153" d="M125 324v766q0 176 117.5 276t328.5 100h488v-39q0 -43 -23.5 -65.5t-91.5 -22.5h-366q-293 0 -293 -278v-723q0 -115 64.5 -192.5t180.5 -77.5h549v-43q0 -86 -116 -86h-261l-22 -74q158 -25 158 -162q0 -180 -277 -180q-66 0 -127 10l15 94q63 -6 92 -6q170 0 170 78 q0 45 -36 64.5t-147 25.5l50 150h-56q-176 0 -286.5 105.5t-110.5 279.5z" />
<glyph unicode="&#xc8;" horiz-adv-x="1191" d="M152 -61v1527h925v-32q0 -49 -18.5 -72t-73.5 -23h-674v-524h699v-39q0 -43 -18.5 -65.5t-71.5 -22.5h-609v-620h791v-41q0 -88 -90 -88h-860zM412 1876h178l149 -270h-51q-39 0 -59.5 10t-44.5 41z" />
<glyph unicode="&#xc9;" horiz-adv-x="1191" d="M152 -61v1527h925v-32q0 -49 -18.5 -72t-73.5 -23h-674v-524h699v-39q0 -43 -18.5 -65.5t-71.5 -22.5h-609v-620h791v-41q0 -88 -90 -88h-860zM442 1606l150 270h178l-172 -219q-25 -31 -45.5 -41t-58.5 -10h-52z" />
<glyph unicode="&#xca;" horiz-adv-x="1191" d="M152 -61v1527h925v-32q0 -49 -18.5 -72t-73.5 -23h-674v-524h699v-39q0 -43 -18.5 -65.5t-71.5 -22.5h-609v-620h791v-41q0 -88 -90 -88h-860zM307 1599l219 269h164l219 -269h-153l-148 185l-147 -185h-154z" />
<glyph unicode="&#xcb;" horiz-adv-x="1191" d="M152 -61v1527h925v-32q0 -49 -18.5 -72t-73.5 -23h-674v-524h699v-39q0 -43 -18.5 -65.5t-71.5 -22.5h-609v-620h791v-41q0 -88 -90 -88h-860zM324 1628v184h174v-184h-174zM678 1628v184h172v-184h-172z" />
<glyph unicode="&#xcc;" horiz-adv-x="497" d="M76 1876h178l149 -270h-51q-39 0 -59.5 10t-44.5 41zM172 33v1433h162v-1527h-72q-47 0 -68.5 21.5t-21.5 72.5z" />
<glyph unicode="&#xcd;" horiz-adv-x="497" d="M76 1606l149 270h178l-172 -219q-25 -31 -45 -41t-59 -10h-51zM172 33v1433h162v-1527h-72q-47 0 -68.5 21.5t-21.5 72.5z" />
<glyph unicode="&#xce;" horiz-adv-x="497" d="M-49 1599l219 269h164l219 -269h-154l-147 185l-148 -185h-153zM172 33v1433h162v-1527h-72q-47 0 -68.5 21.5t-21.5 72.5z" />
<glyph unicode="&#xcf;" horiz-adv-x="497" d="M-12 1628v184h174v-184h-174zM172 33v1433h162v-1527h-72q-47 0 -68.5 21.5t-21.5 72.5zM342 1628v184h172v-184h-172z" />
<glyph unicode="&#xd0;" horiz-adv-x="1456" d="M63 643v129h197v694h571q233 0 354.5 -111.5t121.5 -293.5v-721q0 -182 -121 -291.5t-355 -109.5h-571v704h-197zM418 68h413q150 0 234 72.5t84 199.5v721q0 137 -83 207.5t-235 70.5h-413v-567h360v-43q0 -86 -112 -86h-248v-575z" />
<glyph unicode="&#xd1;" horiz-adv-x="1351" d="M152 33v1433h626q221 0 320.5 -83t99.5 -306v-1138h-68q-92 0 -92 94v1046q0 150 -57 205t-203 55h-467v-1400h-69q-47 0 -68.5 21.5t-21.5 72.5zM291 1616q0 98 65.5 159.5t161.5 61.5q59 0 162 -53q90 -47 121 -47q94 0 110 100h119q0 -96 -64.5 -157.5t-158.5 -61.5 q-16 0 -30.5 1t-30 5t-23.5 6t-24.5 9.5t-20.5 9.5l-23 11q-18 9 -20 11q-6 2 -26.5 14.5t-29 15.5t-25.5 8t-34 5q-96 0 -110 -98h-119z" />
<glyph unicode="&#xd2;" horiz-adv-x="1409" d="M121 557v291q0 313 145.5 480t436 167t436 -167t145.5 -480v-293q0 -313 -145.5 -479t-436 -166t-436 167t-145.5 480zM281 555q0 -264 104 -385t317 -121q215 0 318.5 121t103.5 387v293q14 506 -422 506q-229 0 -329.5 -136.5t-91.5 -371.5v-293zM494 1876h178 l149 -270h-51q-39 0 -59.5 10t-44.5 41z" />
<glyph unicode="&#xd3;" horiz-adv-x="1409" d="M121 557v291q0 313 145.5 480t436 167t436 -167t145.5 -480v-293q0 -313 -145.5 -479t-436 -166t-436 167t-145.5 480zM281 555q0 -264 104 -385t317 -121q215 0 318.5 121t103.5 387v293q14 506 -422 506q-229 0 -329.5 -136.5t-91.5 -371.5v-293zM522 1606l150 270h178 l-172 -219q-25 -31 -45.5 -41t-59.5 -10h-51z" />
<glyph unicode="&#xd4;" horiz-adv-x="1409" d="M121 557v291q0 313 145.5 480t436 167t436 -167t145.5 -480v-293q0 -313 -145.5 -479t-436 -166t-436 167t-145.5 480zM281 555q0 -264 104 -385t317 -121q215 0 318.5 121t103.5 387v293q14 506 -422 506q-229 0 -329.5 -136.5t-91.5 -371.5v-293zM399 1599l219 269h164 l219 -269h-153l-148 185l-147 -185h-154z" />
<glyph unicode="&#xd5;" horiz-adv-x="1409" d="M121 557v291q0 313 145.5 480t436 167t436 -167t145.5 -480v-293q0 -313 -145.5 -479t-436 -166t-436 167t-145.5 480zM281 555q0 -264 104 -385t317 -121q215 0 318.5 121t103.5 387v293q14 506 -422 506q-229 0 -329.5 -136.5t-91.5 -371.5v-293zM309 1616 q0 98 65.5 159.5t162.5 61.5q59 0 161 -53q90 -47 121 -47q94 0 111 100h119q0 -96 -64.5 -157.5t-159.5 -61.5q-16 0 -30.5 1t-29.5 5t-23.5 6t-25 9.5t-20.5 9.5l-22 11q-18 9 -21 11q-6 2 -26.5 14.5t-28.5 15.5t-25.5 8t-33.5 5q-96 0 -111 -98h-119z" />
<glyph unicode="&#xd6;" horiz-adv-x="1409" d="M121 557v291q0 313 145.5 480t436 167t436 -167t145.5 -480v-293q0 -313 -145.5 -479t-436 -166t-436 167t-145.5 480zM281 555q0 -264 104 -385t317 -121q215 0 318.5 121t103.5 387v293q14 506 -422 506q-229 0 -329.5 -136.5t-91.5 -371.5v-293zM428 1628v184h174 v-184h-174zM782 1628v184h172v-184h-172z" />
<glyph unicode="&#xd7;" horiz-adv-x="1169" d="M162 356l325 328l-323 324l96 98l324 -326l325 326l95 -96l-324 -326l326 -326l-97 -96l-325 324l-326 -324z" />
<glyph unicode="&#xd8;" horiz-adv-x="1409" d="M123 557v291q0 313 145.5 480t436.5 167q129 0 233 -35l57 139h160l-86 -206q217 -158 217 -545v-293q0 -313 -144.5 -479t-436.5 -166q-131 0 -236 35l-63 -154h-158l90 221q-215 158 -215 545zM283 555q0 -266 118 -391l478 1157q-76 35 -174 35q-203 0 -312.5 -141.5 t-109.5 -366.5v-293zM524 80q80 -31 181 -31q422 0 421 508v293q0 248 -125 381z" />
<glyph unicode="&#xd9;" horiz-adv-x="1366" d="M154 330v1136h159v-1138q0 -150 57.5 -205t202.5 -55h467v1398h160v-1527h-627q-221 0 -320 83t-99 308zM498 1876h178l149 -270h-51q-39 0 -59.5 10t-44.5 41z" />
<glyph unicode="&#xda;" horiz-adv-x="1366" d="M154 330v1136h159v-1138q0 -150 57.5 -205t202.5 -55h467v1398h160v-1527h-627q-221 0 -320 83t-99 308zM498 1606l149 270h178l-172 -219q-25 -31 -45 -41t-59 -10h-51z" />
<glyph unicode="&#xdb;" horiz-adv-x="1366" d="M154 330v1136h159v-1138q0 -150 57.5 -205t202.5 -55h467v1398h160v-1527h-627q-221 0 -320 83t-99 308zM381 1599l219 269h164l219 -269h-154l-147 185l-147 -185h-154z" />
<glyph unicode="&#xdc;" horiz-adv-x="1366" d="M154 330v1136h159v-1138q0 -150 57.5 -205t202.5 -55h467v1398h160v-1527h-627q-221 0 -320 83t-99 308zM410 1628v184h174v-184h-174zM764 1628v184h172v-184h-172z" />
<glyph unicode="&#xdd;" horiz-adv-x="1318" d="M33 1466h170l450 -778l455 778h174l-553 -919v-608h-67q-92 0 -93 94v516zM492 1606l149 270h178l-172 -219q-25 -31 -45 -41t-59 -10h-51z" />
<glyph unicode="&#xde;" horiz-adv-x="1228" d="M154 33v1433h157v-342h328q248 0 369.5 -92t121.5 -323q0 -236 -115.5 -337.5t-359.5 -101.5h-344v-331h-65q-92 0 -92 94zM311 399h348q178 0 247 76t69 227q0 168 -76 229.5t-244 61.5h-344v-594z" />
<glyph unicode="&#xdf;" horiz-adv-x="1273" d="M154 35v1009q0 242 108.5 346.5t329.5 104.5q178 0 288.5 -85t110.5 -208q0 -127 -73 -252q-86 -143 -87 -188q0 -39 32 -81t134 -112q211 -147 211 -333q0 -141 -102 -233.5t-275 -92.5q-227 0 -337 149l108 97q39 -49 101.5 -79t125.5 -30q92 0 151.5 53.5t59.5 132.5 q0 57 -30.5 104.5t-112.5 106.5q-104 76 -156.5 135.5t-61.5 92.5t-9 82q0 82 63 190q90 150 90 238q0 76 -64.5 129t-170.5 53q-131 0 -203 -72.5t-72 -255.5v-1097h-65q-49 0 -71.5 21.5t-22.5 74.5z" />
<glyph unicode="&#xe0;" horiz-adv-x="1083" d="M113 229v129q0 326 360 316q156 -2 315 -27v117q0 170 -192 170h-287q-68 0 -90 20.5t-22 61.5v49h399q354 0 354 -301v-825h-477q-168 0 -264 74.5t-96 215.5zM272 240q0 -92 60.5 -132t142.5 -40h313v444q-170 23 -313 23q-109 0 -156 -42t-47 -143v-110zM342 1466h178 l150 -270h-52q-39 0 -59 10.5t-45 40.5z" />
<glyph unicode="&#xe1;" horiz-adv-x="1083" d="M113 229v129q0 326 360 316q156 -2 315 -27v117q0 170 -192 170h-287q-68 0 -90 20.5t-22 61.5v49h399q354 0 354 -301v-825h-477q-168 0 -264 74.5t-96 215.5zM272 240q0 -92 60.5 -132t142.5 -40h313v444q-170 23 -313 23q-109 0 -156 -42t-47 -143v-110zM383 1196 l149 270h179l-172 -219q-25 -31 -45.5 -41t-59.5 -10h-51z" />
<glyph unicode="&#xe2;" horiz-adv-x="1083" d="M113 229v129q0 326 360 316q156 -2 315 -27v117q0 170 -192 170h-287q-68 0 -90 20.5t-22 61.5v49h399q354 0 354 -301v-825h-477q-168 0 -264 74.5t-96 215.5zM254 1190l219 268h164l219 -268h-154l-147 184l-147 -184h-154zM272 240q0 -92 60.5 -132t142.5 -40h313v444 q-170 23 -313 23q-109 0 -156 -42t-47 -143v-110z" />
<glyph unicode="&#xe3;" horiz-adv-x="1083" d="M113 229v129q0 326 360 316q156 -2 315 -27v117q0 170 -192 170h-287q-68 0 -90 20.5t-22 61.5v49h399q354 0 354 -301v-825h-477q-168 0 -264 74.5t-96 215.5zM158 1206q0 98 65.5 159.5t161.5 61.5q59 0 162 -53q90 -47 121 -47q94 0 110 100h119q0 -96 -64.5 -157.5 t-158.5 -61.5q-16 0 -30.5 1t-30 5.5t-23.5 6.5t-24.5 9t-20.5 9l-23 11q-18 9 -20 12q-6 2 -26.5 14t-29 15t-26 8.5t-33.5 5.5q-96 0 -111 -99h-118zM272 240q0 -92 60.5 -132t142.5 -40h313v444q-170 23 -313 23q-109 0 -156 -42t-47 -143v-110z" />
<glyph unicode="&#xe4;" horiz-adv-x="1083" d="M113 229v129q0 326 360 316q156 -2 315 -27v117q0 170 -192 170h-287q-68 0 -90 20.5t-22 61.5v49h399q354 0 354 -301v-825h-477q-168 0 -264 74.5t-96 215.5zM272 240q0 -92 60.5 -132t142.5 -40h313v444q-170 23 -313 23q-109 0 -156 -42t-47 -143v-110zM276 1219v184 h175v-184h-175zM631 1219v184h172v-184h-172z" />
<glyph unicode="&#xe5;" horiz-adv-x="1083" d="M113 229v129q0 326 360 316q156 -2 315 -27v117q0 170 -192 170h-287q-68 0 -90 20.5t-22 61.5v49h399q354 0 354 -301v-825h-477q-168 0 -264 74.5t-96 215.5zM272 240q0 -92 60.5 -132t142.5 -40h313v444q-170 23 -313 23q-109 0 -156 -42t-47 -143v-110zM328 1343.5 q0 90.5 60.5 146.5t152.5 56q94 0 154.5 -55t60.5 -147.5t-60.5 -147.5t-154.5 -55q-92 0 -152.5 56t-60.5 146.5zM426 1343.5q0 -49.5 31.5 -80t83.5 -30.5q53 0 84.5 30.5t31.5 80t-31.5 81t-84.5 31.5q-51 0 -83 -31.5t-32 -81z" />
<glyph unicode="&#xe6;" horiz-adv-x="1761" d="M113 229v127q0 166 95 243t267 73q150 -2 309 -27v119q0 170 -192 170h-285q-68 0 -90 20.5t-22 61.5v49h397q182 0 285 -96q133 125 337 125q195 0 316 -101.5t121 -275.5v-150q0 -68 -33 -100.5t-109 -32.5h-563v-151q0 -98 63.5 -156.5t157.5 -58.5h443v-50 q0 -41 -21.5 -60t-89.5 -19h-332q-100 0 -163.5 25.5t-126.5 86.5q-98 -113 -226 -112h-176q-168 0 -265 74.5t-97 215.5zM274 240q0 -92 60.5 -132t142.5 -40h135q72 0 122 48t50 117v277q-170 23 -307 22q-109 0 -156 -41.5t-47 -142.5v-108zM946 563h481q39 0 50.5 12.5 t11.5 49.5v92q0 109 -71.5 178.5t-203.5 69.5q-119 0 -193.5 -69t-74.5 -171v-162z" />
<glyph unicode="&#xe7;" horiz-adv-x="1003" d="M127 309v379q0 170 113.5 273.5t296.5 103.5h374v-39q0 -45 -21.5 -68.5t-84.5 -23.5h-268q-121 0 -184.5 -62.5t-63.5 -183.5v-377q0 -111 65.5 -177t182.5 -66h383v-43q0 -41 -23 -63.5t-90 -22.5h-150l-22 -74q158 -25 158 -162q0 -180 -277 -180q-66 0 -127 10l14 94 q63 -6 93 -6q170 0 170 78q0 45 -36 64.5t-147 25.5l49 150q-182 2 -293.5 102t-111.5 268z" />
<glyph unicode="&#xe8;" horiz-adv-x="1099" d="M113 293v401q0 203 120.5 301.5t311.5 98.5q197 0 318.5 -94.5t121.5 -262.5v-168q0 -68 -32.5 -100.5t-108.5 -32.5h-570v-143q0 -104 63.5 -164.5t158.5 -60.5h446v-50q0 -41 -21.5 -60t-89.5 -19h-335q-172 0 -277.5 96t-105.5 258zM274 565h488q39 0 50 12.5t11 49.5 v110q0 106 -72.5 167t-205.5 61q-125 0 -198 -61.5t-73 -166.5v-172zM358 1466h179l149 -270h-51q-39 0 -59.5 10.5t-45.5 40.5z" />
<glyph unicode="&#xe9;" horiz-adv-x="1099" d="M113 293v401q0 203 120.5 301.5t311.5 98.5q197 0 318.5 -94.5t121.5 -262.5v-168q0 -68 -32.5 -100.5t-108.5 -32.5h-570v-143q0 -104 63.5 -164.5t158.5 -60.5h446v-50q0 -41 -21.5 -60t-89.5 -19h-335q-172 0 -277.5 96t-105.5 258zM274 565h488q39 0 50 12.5t11 49.5 v110q0 106 -72.5 167t-205.5 61q-125 0 -198 -61.5t-73 -166.5v-172zM406 1196l149 270h178l-172 -219q-25 -31 -45 -41t-59 -10h-51z" />
<glyph unicode="&#xea;" horiz-adv-x="1099" d="M113 293v401q0 203 120.5 301.5t311.5 98.5q197 0 318.5 -94.5t121.5 -262.5v-168q0 -68 -32.5 -100.5t-108.5 -32.5h-570v-143q0 -104 63.5 -164.5t158.5 -60.5h446v-50q0 -41 -21.5 -60t-89.5 -19h-335q-172 0 -277.5 96t-105.5 258zM254 1190l219 268h164l219 -268 h-154l-147 184l-147 -184h-154zM274 565h488q39 0 50 12.5t11 49.5v110q0 106 -72.5 167t-205.5 61q-125 0 -198 -61.5t-73 -166.5v-172z" />
<glyph unicode="&#xeb;" horiz-adv-x="1099" d="M113 293v401q0 203 120.5 301.5t311.5 98.5q197 0 318.5 -94.5t121.5 -262.5v-168q0 -68 -32.5 -100.5t-108.5 -32.5h-570v-143q0 -104 63.5 -164.5t158.5 -60.5h446v-50q0 -41 -21.5 -60t-89.5 -19h-335q-172 0 -277.5 96t-105.5 258zM274 565h488q39 0 50 12.5t11 49.5 v110q0 106 -72.5 167t-205.5 61q-125 0 -198 -61.5t-73 -166.5v-172zM291 1219v184h174v-184h-174zM645 1219v184h172v-184h-172z" />
<glyph unicode="&#xec;" horiz-adv-x="489" d="M53 1466h178l150 -270h-51q-39 0 -59.5 10.5t-45.5 40.5zM141 37v1028h162v-1126h-70q-49 0 -70.5 22.5t-21.5 75.5z" />
<glyph unicode="&#xed;" horiz-adv-x="489" d="M59 1196l150 270h178l-172 -219q-25 -31 -45 -41t-59 -10h-52zM141 37v1028h162v-1126h-70q-49 0 -70.5 22.5t-21.5 75.5z" />
<glyph unicode="&#xee;" horiz-adv-x="489" d="M-76 1190l219 268h164l219 -268h-153l-148 184l-147 -184h-154zM141 37v1028h162v-1126h-70q-49 0 -70.5 22.5t-21.5 75.5z" />
<glyph unicode="&#xef;" horiz-adv-x="489" d="M-39 1219v184h174v-184h-174zM141 37v1028h162v-1126h-70q-49 0 -70.5 22.5t-21.5 75.5zM315 1219v184h172v-184h-172z" />
<glyph unicode="&#xf0;" horiz-adv-x="1183" d="M125 324v276q0 190 112.5 295.5t331.5 105.5q96 0 186.5 -29.5t141.5 -82.5v98q0 242 -154 326l-233 -211l-96 96l176 160q-84 6 -291 -6q-61 -4 -61 57v70q307 33 477 -6l182 165l96 -98l-137 -123q195 -123 195 -452v-641q0 -203 -124 -309.5t-345.5 -102.5t-339 107.5 t-117.5 304.5zM281 350q0 -301 301 -301q170 0 242.5 69.5t72.5 229.5v232q0 154 -81 219t-243 65q-147 0 -219.5 -66.5t-72.5 -226.5v-221z" />
<glyph unicode="&#xf1;" horiz-adv-x="1142" d="M143 37v1028h484q207 0 289.5 -78t82.5 -270v-778h-69q-49 0 -71.5 22.5t-22.5 75.5v680q0 127 -45.5 172t-163.5 45h-322v-995h-67q-49 0 -72 22.5t-23 75.5zM193 1206q0 98 65.5 159.5t161.5 61.5q59 0 162 -53q90 -47 120 -47q94 0 111 100h119q0 -96 -64.5 -157.5 t-158.5 -61.5q-16 0 -30.5 1t-30 5.5t-24 6.5t-24.5 9t-20 9l-23 11q-18 9 -20 12q-6 2 -27 14t-29 15t-25.5 8.5t-33.5 5.5q-96 0 -111 -99h-118z" />
<glyph unicode="&#xf2;" horiz-adv-x="1150" d="M123 373v262q0 240 113.5 349.5t336.5 109.5q227 0 339 -107.5t112 -351.5v-262q0 -244 -111.5 -353.5t-339.5 -109.5q-223 0 -336.5 109.5t-113.5 353.5zM285 373q0 -180 68.5 -256t220 -76t220 73.5t68.5 258.5v262q0 176 -63 248q-70 82 -226 82q-150 0 -219 -75 t-69 -255v-262zM356 1466h179l149 -270h-51q-39 0 -59.5 10.5t-45.5 40.5z" />
<glyph unicode="&#xf3;" horiz-adv-x="1150" d="M123 373v262q0 240 113.5 349.5t336.5 109.5q227 0 339 -107.5t112 -351.5v-262q0 -244 -111.5 -353.5t-339.5 -109.5q-223 0 -336.5 109.5t-113.5 353.5zM285 373q0 -180 68.5 -256t220 -76t220 73.5t68.5 258.5v262q0 176 -63 248q-70 82 -226 82q-150 0 -219 -75 t-69 -255v-262zM414 1196l149 270h178l-172 -219q-25 -31 -45 -41t-59 -10h-51z" />
<glyph unicode="&#xf4;" horiz-adv-x="1150" d="M123 373v262q0 240 113.5 349.5t336.5 109.5q227 0 339 -107.5t112 -351.5v-262q0 -244 -111.5 -353.5t-339.5 -109.5q-223 0 -336.5 109.5t-113.5 353.5zM270 1190l219 268h164l219 -268h-153l-148 184l-147 -184h-154zM285 373q0 -180 68.5 -256t220 -76t220 73.5 t68.5 258.5v262q0 176 -63 248q-70 82 -226 82q-150 0 -219 -75t-69 -255v-262z" />
<glyph unicode="&#xf5;" horiz-adv-x="1150" d="M123 373v262q0 240 113.5 349.5t336.5 109.5q227 0 339 -107.5t112 -351.5v-262q0 -244 -111.5 -353.5t-339.5 -109.5q-223 0 -336.5 109.5t-113.5 353.5zM182 1206q0 98 65.5 159.5t162.5 61.5q59 0 161 -53q90 -47 121 -47q94 0 111 100h119q0 -96 -64.5 -157.5 t-159.5 -61.5q-16 0 -30.5 1t-29.5 5.5t-23.5 6.5t-25 9t-20.5 9l-22 11q-18 9 -21 12q-6 2 -26.5 14t-28.5 15t-25.5 8.5t-33.5 5.5q-96 0 -111 -99h-119zM285 373q0 -180 68.5 -256t220 -76t220 73.5t68.5 258.5v262q0 176 -63 248q-70 82 -226 82q-150 0 -219 -75 t-69 -255v-262z" />
<glyph unicode="&#xf6;" horiz-adv-x="1150" d="M123 373v262q0 240 113.5 349.5t336.5 109.5q227 0 339 -107.5t112 -351.5v-262q0 -244 -111.5 -353.5t-339.5 -109.5q-223 0 -336.5 109.5t-113.5 353.5zM285 373q0 -180 68.5 -256t220 -76t220 73.5t68.5 258.5v262q0 176 -63 248q-70 82 -226 82q-150 0 -219 -75 t-69 -255v-262zM305 1219v184h174v-184h-174zM659 1219v184h172v-184h-172z" />
<glyph unicode="&#xf7;" horiz-adv-x="1013" d="M59 635v131h893v-131h-893zM408 209v203h184v-203h-184zM408 983v205h184v-205h-184z" />
<glyph unicode="&#xf8;" horiz-adv-x="1142" d="M123 352v303q0 438 450 439q70 0 148 -15l74 183h157l-94 -236q166 -102 166 -371v-303q0 -442 -451 -442q-82 0 -153 16l-76 -190h-156l97 246q-162 104 -162 370zM285 352q0 -139 61 -217l326 817q-43 12 -99 13q-137 0 -212.5 -80t-75.5 -230v-303zM471 53 q45 -12 102 -12q139 0 214 79t75 232v303q0 137 -65 217z" />
<glyph unicode="&#xf9;" horiz-adv-x="1122" d="M133 319v746h160v-746q0 -154 52 -202.5t194 -48.5h280v997h162v-1126h-442q-217 0 -311.5 80.5t-94.5 299.5zM356 1466h179l149 -270h-51q-39 0 -59.5 10.5t-45.5 40.5z" />
<glyph unicode="&#xfa;" horiz-adv-x="1122" d="M133 319v746h160v-746q0 -154 52 -202.5t194 -48.5h280v997h162v-1126h-442q-217 0 -311.5 80.5t-94.5 299.5zM403 1196l150 270h178l-172 -219q-25 -31 -45 -41t-59 -10h-52z" />
<glyph unicode="&#xfb;" horiz-adv-x="1122" d="M133 319v746h160v-746q0 -154 52 -202.5t194 -48.5h280v997h162v-1126h-442q-217 0 -311.5 80.5t-94.5 299.5zM260 1190l219 268h164l219 -268h-153l-148 184l-147 -184h-154z" />
<glyph unicode="&#xfc;" horiz-adv-x="1122" d="M133 319v746h160v-746q0 -154 52 -202.5t194 -48.5h280v997h162v-1126h-442q-217 0 -311.5 80.5t-94.5 299.5zM309 1219v184h174v-184h-174zM664 1219v184h172v-184h-172z" />
<glyph unicode="&#xfd;" horiz-adv-x="1122" d="M131 293v772h162v-770q0 -119 41 -174t145 -53q133 2 340 20v977h162v-1262q0 -133 -84 -212.5t-256 -79.5h-455v49q0 49 23.5 69.5t83.5 20.5h348q98 0 138 39t40 116v154q-141 -14 -348 -20q-170 -4 -255 88t-85 266zM399 1196l150 270h178l-172 -219 q-25 -31 -45.5 -41t-58.5 -10h-52z" />
<glyph unicode="&#xfe;" horiz-adv-x="1085" d="M154 -393v1870h161v-408h250q412 0 412 -354v-422q0 -354 -412 -354h-250v-431h-69q-92 1 -92 99zM315 68h250q117 0 184.5 62.5t67.5 182.5v379q0 123 -66.5 184.5t-183.5 61.5h-252v-870z" />
<glyph unicode="&#xff;" horiz-adv-x="1122" d="M131 293v772h162v-770q0 -119 41 -174t145 -53q133 2 340 20v977h162v-1262q0 -133 -84 -212.5t-256 -79.5h-455v49q0 49 23.5 69.5t83.5 20.5h348q98 0 138 39t40 116v154q-141 -14 -348 -20q-170 -4 -255 88t-85 266zM293 1219v184h174v-184h-174zM647 1219v184h172 v-184h-172z" />
<glyph unicode="&#x152;" horiz-adv-x="1949" d="M123 557v291q0 313 145.5 480t436.5 167q117 0 215 -29h921v-32q0 -49 -18.5 -72t-73.5 -23h-672v-524h697v-39q0 -43 -18.5 -65.5t-72.5 -22.5h-606v-620h791v-41q0 -88 -92 -88h-856q-98 -29 -215 -29q-291 0 -436.5 167t-145.5 480zM283 555q0 -248 106.5 -377 t315.5 -129q119 0 213 45v1206q-94 55 -213 56q-203 0 -312.5 -141.5t-109.5 -366.5v-293z" />
<glyph unicode="&#x153;" horiz-adv-x="1830" d="M109 352v303q0 438 450 439q258 0 369 -142q113 141 352 142q197 0 318.5 -94.5t121.5 -262.5v-168q0 -68 -32.5 -100.5t-108.5 -32.5h-569v-143q0 -104 63.5 -164.5t157.5 -60.5h446v-50q0 -41 -21.5 -60t-88.5 -19h-336q-195 0 -301 118q-111 -147 -371 -147 q-450 0 -450 442zM270 352q0 -150 75 -230.5t214 -80.5t214 79t75 232v303q0 139 -70.5 224.5t-218.5 85.5q-137 0 -213 -80t-76 -230v-303zM1010 565h487q39 0 50.5 12.5t11.5 49.5v110q0 106 -73 167t-206 61q-125 0 -197.5 -61.5t-72.5 -166.5v-172z" />
<glyph unicode="&#x178;" horiz-adv-x="1318" d="M33 1466h170l450 -778l455 778h174l-553 -919v-608h-67q-92 0 -93 94v516zM391 1628v184h174v-184h-174zM745 1628v184h173v-184h-173z" />
<glyph unicode="&#x2c6;" horiz-adv-x="931" d="M164 1190l219 268h164l219 -268h-154l-147 184l-148 -184h-153z" />
<glyph unicode="&#x2dc;" horiz-adv-x="614" d="M-370 123q0 98 65.5 159.5t161.5 61.5q59 0 162 -53q90 -47 121 -47q94 0 110 100h119q0 -96 -64.5 -157.5t-158.5 -61.5q-16 0 -30.5 1t-30 5.5t-23.5 6.5t-24.5 9t-20.5 9l-23 11q-18 9 -20 12q-6 2 -26.5 14t-29 15t-25.5 8.5t-34 5.5q-96 0 -110 -99h-119z" />
<glyph unicode="&#x303;" horiz-adv-x="890" d="M76 1206q0 98 65.5 159.5t161.5 61.5q59 0 162 -53q90 -47 121 -47q94 0 110 100h119q0 -96 -64.5 -157.5t-158.5 -61.5q-16 0 -30.5 1t-30 5.5t-23.5 6.5t-24.5 9t-20.5 9l-23 11q-18 9 -20 12q-6 2 -26.5 14t-29 15t-25.5 8.5t-34 5.5q-96 0 -110 -99h-119z" />
<glyph unicode="&#x2000;" horiz-adv-x="976" />
<glyph unicode="&#x2001;" horiz-adv-x="1955" />
<glyph unicode="&#x2002;" horiz-adv-x="976" />
<glyph unicode="&#x2003;" horiz-adv-x="1955" />
<glyph unicode="&#x2004;" horiz-adv-x="651" />
<glyph unicode="&#x2005;" horiz-adv-x="487" />
<glyph unicode="&#x2006;" horiz-adv-x="325" />
<glyph unicode="&#x2007;" horiz-adv-x="325" />
<glyph unicode="&#x2008;" horiz-adv-x="243" />
<glyph unicode="&#x2009;" horiz-adv-x="391" />
<glyph unicode="&#x200a;" horiz-adv-x="108" />
<glyph unicode="&#x2010;" horiz-adv-x="1118" d="M135 641v131h850v-131h-850z" />
<glyph unicode="&#x2011;" horiz-adv-x="1118" d="M135 641v131h850v-131h-850z" />
<glyph unicode="&#x2012;" horiz-adv-x="1118" d="M135 641v131h850v-131h-850z" />
<glyph unicode="&#x2013;" horiz-adv-x="1024" d="M135 641v131h756v-131h-756z" />
<glyph unicode="&#x2014;" horiz-adv-x="2048" d="M135 641v131h1780v-131h-1780z" />
<glyph unicode="&#x2018;" horiz-adv-x="661" d="M197 1079v213q0 106 50 185t140 116q8 -12 27.5 -36.5t27.5 -36.5q-111 -59 -110 -170v-58h117v-213h-252z" />
<glyph unicode="&#x2019;" horiz-adv-x="661" d="M195 1380v213h251v-213q0 -106 -50 -185t-140 -116q-8 12 -27.5 37t-27.5 37q111 59 110 170v57h-116z" />
<glyph unicode="&#x201c;" horiz-adv-x="1003" d="M188 1079v213q0 106 50.5 185t140.5 116q8 -12 27.5 -36.5t27.5 -36.5q-111 -59 -110 -170v-58h116v-213h-252zM569 1079v213q0 106 50.5 185t140.5 116q8 -12 27.5 -36.5t27.5 -36.5q-111 -59 -110 -170v-58h116v-213h-252z" />
<glyph unicode="&#x201d;" horiz-adv-x="1003" d="M190 1374v213h252v-213q0 -106 -50 -185t-140 -116q-8 12 -27.5 37t-27.5 37q111 59 110 170v57h-117zM571 1374v213h252v-213q0 -106 -50 -185t-140 -116q-8 12 -27.5 37t-27.5 37q111 59 110 170v57h-117z" />
<glyph unicode="&#x2022;" horiz-adv-x="1884" d="M717 614q0 90 66.5 157t158.5 67t158.5 -66.5t66.5 -157.5q0 -94 -66.5 -160.5t-158.5 -66.5t-158.5 66.5t-66.5 160.5z" />
<glyph unicode="&#x2026;" horiz-adv-x="1699" d="M258 637v205h186v-205h-186zM754 637v205h186v-205h-186zM1253 637v205h187v-205h-187z" />
<glyph unicode="&#x202f;" horiz-adv-x="391" />
<glyph unicode="&#x2039;" horiz-adv-x="1884" d="M330 614l1478 904v-76l-1335 -828l1335 -825v-80z" />
<glyph unicode="&#x203a;" horiz-adv-x="1884" d="M76 -211l1335 825l-1335 828v76l1478 -904l-1478 -905v80z" />
<glyph unicode="&#x205f;" horiz-adv-x="487" />
<glyph unicode="&#x20ac;" horiz-adv-x="1884" d="M256 393v131h279v273h-279v131h279v162q0 176 117.5 276t328.5 100h487v-39q0 -43 -23.5 -65.5t-90.5 -22.5h-367q-293 0 -293 -278v-133h441v-131h-441v-273h441v-131h-441v-55q0 -115 64.5 -192.5t181.5 -77.5h549v-43q0 -86 -117 -86h-440q-176 0 -286.5 105.5 t-110.5 279.5v69h-279z" />
<glyph unicode="&#x2122;" horiz-adv-x="1884" d="M109 1337v129h671v-67q0 -35 -12 -48.5t-53 -13.5h-195v-716h-90q-61 0 -61 65v651h-260zM872 678v788h226l198 -372q31 -61 64 0l201 372h221v-845h-86q-63 0 -64 63v639l-202 -362q-39 -70 -100.5 -70t-100.5 67l-205 365v-702h-88q-64 0 -64 57z" />
<glyph unicode="&#xe000;" horiz-adv-x="1065" d="M0 1065h1065v-1065h-1065v1065z" />
<glyph unicode="&#xfb01;" horiz-adv-x="1333" d="M1009 1360v117h170v-228h-49q-51 0 -86 30t-35 81zM1014 37v1028h161v-1126h-67q-51 0 -72.5 22.5t-21.5 75.5zM57 934v131h226v143q0 133 58 201t214 68h250v-33q0 -96 -115 -96h-135q-111 0 -111 -125v-158h316v-57q0 -37 -32 -55.5t-73 -18.5h-211v-995h-69 q-49 0 -70.5 22.5t-21.5 75.5v897h-226z" />
<glyph unicode="&#xfb02;" horiz-adv-x="1337" d="M1012 37v1440h161v-1538h-71q-47 0 -68.5 22.5t-21.5 75.5zM57 934v131h226v143q0 133 58 201t214 68h250v-33q0 -96 -115 -96h-135q-111 0 -111 -125v-158h316v-57q0 -37 -32 -55.5t-73 -18.5h-211v-995h-69q-49 0 -70.5 22.5t-21.5 75.5v897h-226z" />
<glyph unicode="&#xfb03;" horiz-adv-x="2195" d="M1871 1360v117h170v-228h-49q-51 0 -86 30t-35 81zM1876 37v1028h161v-1126h-67q-51 0 -72.5 22.5t-21.5 75.5zM919 934v131h226v143q0 133 58 201t214 68h250v-33q0 -96 -115 -96h-135q-111 0 -111 -125v-158h316v-57q0 -37 -32 -55.5t-73 -18.5h-211v-995h-69 q-49 0 -70.5 22.5t-21.5 75.5v897h-226zM57 934v131h226v143q0 133 58 201t214 68h250v-33q0 -96 -115 -96h-135q-111 0 -111 -125v-158h316v-57q0 -37 -32 -55.5t-73 -18.5h-211v-995h-69q-49 0 -70.5 22.5t-21.5 75.5v897h-226z" />
<glyph unicode="&#xfb04;" horiz-adv-x="2199" d="M1874 37v1440h161v-1538h-71q-47 0 -68.5 22.5t-21.5 75.5zM919 934v131h226v143q0 133 58 201t214 68h250v-33q0 -96 -115 -96h-135q-111 0 -111 -125v-158h316v-57q0 -37 -32 -55.5t-73 -18.5h-211v-995h-69q-49 0 -70.5 22.5t-21.5 75.5v897h-226zM57 934v131h226v143 q0 133 58 201t214 68h250v-33q0 -96 -115 -96h-135q-111 0 -111 -125v-158h316v-57q0 -37 -32 -55.5t-73 -18.5h-211v-995h-69q-49 0 -70.5 22.5t-21.5 75.5v897h-226z" />
</font>
</defs>
</svg>
