<?xml version="1.0" standalone="no"?>
<!DOCTYPE svg PUBLIC "-//W3C//DTD SVG 1.1//EN" "http://www.w3.org/Graphics/SVG/1.1/DTD/svg11.dtd" >
<svg xmlns="http://www.w3.org/2000/svg">
<metadata>
This is a custom SVG webfont generated by Font Squirrel.
Copyright   : Copyright  2011 Hyundai Motor Company and YoonDesign Inc All rights reserved
Designer    : YoonDesign Inc
Foundry     : YoonDesign Inc
Foundry URL : httpwwwyoonfontcokr
</metadata>
<defs>
<font id="ModernHEcoLight" horiz-adv-x="1064" >
<font-face units-per-em="2048" ascent="1638" descent="-410" />
<missing-glyph horiz-adv-x="614" />
<glyph unicode=" "  horiz-adv-x="614" />
<glyph unicode="&#x09;" horiz-adv-x="614" />
<glyph unicode="&#xa0;" horiz-adv-x="614" />
<glyph unicode="!" horiz-adv-x="604" d="M221 1516h164l-35 -1102h-90zM229 -61v180h146v-180h-146z" />
<glyph unicode="&#x22;" horiz-adv-x="737" d="M152 1538h133q-4 -84 -14.5 -254t-14.5 -256h-29q-45 0 -49 53q-4 78 -13 229.5t-13 227.5zM428 1538h131q-4 -84 -14 -254t-15 -256h-26q-23 0 -36 16.5t-15 36.5z" />
<glyph unicode="#" horiz-adv-x="1427" d="M57 395v94h271l78 476h-238v94h254l74 436h116l-71 -436h463l71 436h119l-72 -436h244v-62q0 -33 -37 -32h-223l-76 -476h223v-61q0 -33 -36 -33h-203l-72 -432q-8 -53 -45 -53h-82l78 485h-463l-70 -432q-8 -53 -45 -53h-82l78 485h-254zM446 489h463l76 476h-461z" />
<glyph unicode="$" horiz-adv-x="1077" d="M84 0v29q0 31 19.5 43t70.5 12h318v612l-134 58q-270 117 -270 327q0 309 404 324v151h116v-149h338v-29q0 -37 -18.5 -47t-67.5 -10h-252v-571l99 -43q162 -72 228 -157t66 -206q0 -166 -110.5 -246t-282.5 -94v-154h-76q-41 0 -40 54v96h-408zM211 1081q0 -92 53 -143 t178 -109l50 -22v512q-281 -17 -281 -238zM608 90q274 29 275 252q0 190 -254 291l-21 8v-551z" />
<glyph unicode="%" horiz-adv-x="1705" d="M74 1106q0 162 82 249t235 87q152 0 235 -88t83 -248q0 -156 -83 -244t-235 -88q-154 0 -235.5 86t-81.5 246zM190 1106q0 -246 201 -246q199 0 199 246q0 250 -199 250q-201 0 -201 -250zM436 -61l709 1527h123l-686 -1482q-23 -45 -74 -45h-72zM993 293q0 160 82 247 t236 87q152 0 235.5 -87t83.5 -247q0 -156 -84 -244t-235 -88q-154 0 -236 86t-82 246zM1112 293q0 -246 198.5 -246t198.5 246q0 250 -198.5 250t-198.5 -250z" />
<glyph unicode="&#x26;" horiz-adv-x="1394" d="M78 305q0 207 215 348l184 121l-131 148q-133 150 -133 276q0 135 100.5 216t298.5 81q176 0 287 -82t111 -221q0 -170 -156 -279l-225 -159l442 -490q74 135 82 354l100 -10q-4 -248 -114 -420l215 -249h-131l-146 161q-195 -190 -497 -190q-258 0 -380 111.5 t-122 283.5zM197 301q0 -141 105.5 -223t277.5 -82q121 0 239.5 51t190.5 135l-467 518l-185 -125q-92 -61 -126.5 -122.5t-34.5 -151.5zM334 1202q0 -106 80 -196l155 -175l197 136q121 84 121 225q0 102 -73 158.5t-202 56.5q-278 0 -278 -205z" />
<glyph unicode="'" horiz-adv-x="522" d="M197 1538h135l-29 -510h-29q-47 0 -51 53z" />
<glyph unicode="(" horiz-adv-x="716" d="M172 719q0 190 16 321q45 342 306 506l51 -57q-193 -150 -242 -442q-18 -121 -18 -328q0 -190 18 -338q16 -127 78.5 -241.5t163.5 -192.5l-51 -60q-123 76 -205 210t-101 290q-16 137 -16 332z" />
<glyph unicode=")" horiz-adv-x="716" d="M174 -53q100 78 162.5 191.5t79.5 242.5q18 147 18 338q0 207 -18 328q-47 293 -242 442l51 57q260 -166 305 -506q16 -131 17 -321q0 -195 -17 -332q-18 -156 -100 -290t-205 -210z" />
<glyph unicode="*" horiz-adv-x="1122" d="M131 893l406 176l-406 182l70 111l350 -242l-37 418h119l-31 -418l342 246l66 -113l-392 -184l390 -172l-66 -111l-340 238l35 -412h-119l33 412l-348 -238z" />
<glyph unicode="+" horiz-adv-x="1218" d="M113 625v94h438v436h115v-436h442v-94h-442v-445h-115v445h-438z" />
<glyph unicode="," horiz-adv-x="473" d="M139 -264q111 59 111 180v25h-107v184h189v-209q0 -84 -52.5 -138t-115.5 -75z" />
<glyph unicode="-" horiz-adv-x="1112" d="M135 625v94h844v-94h-844z" />
<glyph unicode="." horiz-adv-x="454" d="M152 -61v163h147v-163h-147z" />
<glyph unicode="/" horiz-adv-x="923" d="M123 -106l584 1644h112l-583 -1644h-113z" />
<glyph unicode="0" d="M84 707q0 418 94 603t357 185q268 0 361 -180t93 -608q0 -442 -99 -619.5t-355 -177.5t-353.5 184.5t-97.5 612.5zM207 707q0 -145 7 -247t27.5 -196t56.5 -149.5t94.5 -87t142.5 -31.5q88 0 148 32.5t96 86t55.5 149.5t24.5 193.5t5 249.5q0 143 -6 241.5t-26.5 191.5 t-55.5 147t-95 87t-146 33q-193 0 -260.5 -169t-67.5 -531z" />
<glyph unicode="1" d="M254 1378v88h350q41 0 41 -39v-1488h-55q-37 0 -52.5 19t-15.5 65v1355h-268z" />
<glyph unicode="2" d="M96 29v213q0 147 131 239l422 303q57 41 93 80t52.5 84t21.5 78t7 88q0 137 -95 211t-269 74q-127 0 -334 -60v105q217 51 334 51q227 0 357 -98.5t130 -282.5q-2 -141 -55 -234.5t-164 -170.5l-414 -295q-55 -39 -74.5 -81t-19.5 -104v-202h754v-25q0 -63 -72 -63h-700 q-59 0 -82 18.5t-23 71.5z" />
<glyph unicode="3" d="M106 -14q0 53 62 43q156 -27 250 -27q203 0 312.5 81t109.5 273q0 180 -92.5 256t-278.5 76h-246q-18 0 -18 14v74h264q170 0 251 78t81 258q0 145 -91.5 219t-260.5 74q-55 0 -152.5 -19.5t-157.5 -39.5v96q160 53 312 53q221 0 349 -97.5t124 -289.5q-8 -299 -230 -373 q135 -31 202 -133t67 -233q0 -248 -140.5 -353.5t-406.5 -105.5q-135 0 -310 33v43z" />
<glyph unicode="4" d="M45 231v93l576 1065q23 43 45 60t65 17h135v-1147h164v-40q0 -47 -43 -48h-121v-292h-61q-59 0 -60 84v208h-700zM172 319h573v1057z" />
<glyph unicode="5" d="M117 -6q0 27 24.5 36t44.5 3l43 -6q119 -18 203 -21q205 -4 301 96.5t96 307.5q0 348 -344 348h-346v708h772v-41q0 -49 -53 -49h-596v-530h223q258 -2 359.5 -110.5t107.5 -325.5q0 -254 -129 -377t-389 -123q-135 0 -317 33v51z" />
<glyph unicode="6" d="M92 313v629q0 250 126 387t388 137q188 0 293 -14v-53q0 -39 -41 -35q-137 12 -250 12q-403 0 -403 -409v-213q131 160 346 159q211 0 316.5 -103t105.5 -294v-203q0 -201 -111.5 -302t-322.5 -101q-447 0 -447 403zM205 340q0 -184 75.5 -261t258.5 -77q319 0 319 340 v145q0 330 -311 330q-160 0 -251 -86t-91 -235v-156z" />
<glyph unicode="7" d="M109 1378v88h829q29 0 29 -24v-39q0 -41 -25 -100l-489 -1321q-16 -43 -56 -43h-71l528 1439h-745z" />
<glyph unicode="8" d="M45 328q0 168 58.5 269t177.5 163q-98 53 -147.5 144t-49.5 196q0 395 446 395q205 0 329 -94t124 -297q0 -246 -207 -342q141 -53 192.5 -158.5t51.5 -263.5q0 -205 -120 -317.5t-365 -112.5q-227 0 -358.5 102.5t-131.5 315.5zM168 348q0 -174 93 -263t274 -89 q193 0 278.5 99.5t85.5 248.5q0 188 -83 281.5t-286 93.5q-362 0 -362 -371zM205 1104q0 -313 323 -313q332 0 332 313q0 158 -89 230.5t-239 72.5q-327 0 -327 -303z" />
<glyph unicode="9" d="M92 891v199q0 395 434 405q213 4 330 -100.5t117 -304.5v-605q0 -268 -116 -407t-398 -139q-123 0 -291 16v53q0 39 39 35q16 -2 48 -5t46 -3q74 -8 156 -8q111 0 189.5 30.5t118.5 73.5t63.5 108.5t27.5 111.5t4 110v190q-51 -72 -143 -113.5t-203 -41.5 q-211 0 -316.5 102.5t-105.5 292.5zM207 922q0 -182 79 -258t232 -76q342 0 342 323v152q0 180 -75.5 258t-258.5 78q-160 0 -239.5 -82t-79.5 -256v-139z" />
<glyph unicode=":" horiz-adv-x="454" d="M154 205v164h147v-164h-147zM154 1038v166h147v-166h-147z" />
<glyph unicode=";" horiz-adv-x="440" d="M96 -4l68 403h129l-154 -458h-30q-23 0 -13 55zM150 1038v166h145v-166h-145z" />
<glyph unicode="&#x3c;" horiz-adv-x="921" d="M129 696l582 643l80 -71l-521 -572l523 -575l-82 -72z" />
<glyph unicode="=" horiz-adv-x="1167" d="M164 451v86h842v-86h-842zM164 922v86h842v-86h-842z" />
<glyph unicode="&#x3e;" horiz-adv-x="921" d="M131 121l520 575l-520 572l80 71l582 -643l-582 -647z" />
<glyph unicode="?" horiz-adv-x="1083" d="M88 1450q217 66 391 66q236 0 370 -95.5t134 -269.5q0 -227 -190 -354l-191 -127q-53 -35 -67.5 -72t-14.5 -119v-102h-121v106q0 164 72 215l203 138q109 72 148.5 141.5t39.5 163.5q0 283 -377 282q-158 0 -391 -63zM385 -61v184h145v-184h-145z" />
<glyph unicode="@" horiz-adv-x="1875" d="M72 705q0 399 229 630.5t678 231.5q414 0 618.5 -201t204.5 -561q0 -250 -129 -415t-348 -165h-461q-141 0 -226 64.5t-85 181.5v111q0 250 324 249q119 0 311 -18v135q0 84 -40 123t-149 39h-307q-33 0 -44 10t-11 35v45h393q150 0 214.5 -70.5t64.5 -203.5v-602 q170 2 270 143t100 336q0 672 -706 672q-375 0 -577.5 -214t-202.5 -561q0 -350 189 -541.5t583 -191.5q229 0 376 64l15 -51q10 -37 -29 -50q-184 -57 -397 -57q-430 0 -644 220.5t-214 611.5zM678 489q0 -96 53 -136t176 -40h281v416q-143 18 -281 19q-121 0 -175 -37 t-54 -136v-86z" />
<glyph unicode="A" horiz-adv-x="1296" d="M37 -61l516 1527h147q18 0 36 -15t24 -34l502 -1478h-123l-183 540q-39 -70 -131 -69h-506l-159 -471h-123zM346 500h606l-303 901z" />
<glyph unicode="B" horiz-adv-x="1273" d="M150 -61v1527h579q381 0 381 -331v-97q0 -223 -176 -305q104 -25 163.5 -108.5t59.5 -192.5v-141q0 -352 -428 -352h-579zM266 27h461q309 0 309 274v102q0 127 -74.5 206t-232.5 79h-463v-661zM266 776h465q145 0 203.5 77t58.5 187v84q0 113 -66.5 183.5t-195.5 70.5 h-465v-602z" />
<glyph unicode="C" horiz-adv-x="1140" d="M125 313v787q0 174 114.5 270t321.5 96h479v-22q0 -33 -18 -49.5t-74 -16.5h-381q-322 0 -321 -307v-743q0 -127 71.5 -214t202.5 -87h543v-23q0 -66 -96 -65h-455q-172 0 -279.5 101t-107.5 273z" />
<glyph unicode="D" horiz-adv-x="1316" d="M152 -61v1527h546q242 0 365 -112.5t123 -302.5v-701q0 -190 -123 -300.5t-365 -110.5h-546zM270 27h428q174 0 272.5 85t98.5 238v701q0 160 -97.5 243.5t-273.5 83.5h-428v-1351z" />
<glyph unicode="E" horiz-adv-x="1177" d="M152 -61v1527h907v-16q0 -37 -15.5 -54.5t-56.5 -17.5h-715v-581h717v-23q0 -33 -14 -49t-55 -16h-648v-682h811v-21q0 -68 -69 -67h-862z" />
<glyph unicode="F" horiz-adv-x="1134" d="M152 16v1450h931v-20q0 -68 -79 -68h-732v-581h740v-23q0 -66 -82 -65h-658v-770h-30q-90 -1 -90 77z" />
<glyph unicode="G" horiz-adv-x="1331" d="M137 322v768q0 176 118 276t300 100h604v-18q0 -37 -18.5 -53.5t-67.5 -16.5h-518q-131 0 -213 -78.5t-82 -214.5v-766q0 -129 76 -210.5t219 -81.5h264q123 0 189.5 76.5t66.5 195.5v289q0 51 -21.5 68.5t-66.5 17.5h-209q-45 0 -62.5 11t-17.5 42v35h371 q127 0 127 -125v-338q0 -178 -99.5 -269t-275.5 -91h-266q-190 0 -304 98.5t-114 284.5z" />
<glyph unicode="H" horiz-adv-x="1335" d="M154 12v1454h120v-669h781v669h121v-1527h-50q-39 0 -55 17t-16 56v762q-43 -66 -127 -65h-654v-770h-51q-69 -1 -69 73z" />
<glyph unicode="I" horiz-adv-x="466" d="M174 23v1443h125v-1527h-43q-37 0 -59.5 22.5t-22.5 61.5z" />
<glyph unicode="J" horiz-adv-x="798" d="M29 -35q0 35 17 48.5t60 13.5h138q143 0 208.5 62.5t65.5 217.5v1159h123v-1159q0 -190 -94 -279t-303 -89h-215v26z" />
<glyph unicode="K" horiz-adv-x="1101" d="M156 23v1443h120v-1527h-45q-75 0 -75 84zM356 727l564 739h139l-561 -737l592 -790h-93q-49 0 -73 34z" />
<glyph unicode="L" d="M154 -61v1527h120v-1439h752v-21q0 -37 -14.5 -52t-50.5 -15h-807z" />
<glyph unicode="M" horiz-adv-x="1746" d="M158 18v1448h145l520 -956q27 -51 47 -51q23 0 50 51l522 956h143v-1527h-43q-37 0 -57.5 23.5t-20.5 62.5v1263l-479 -868q-41 -70 -114.5 -70t-112.5 68l-477 870v-1349h-50q-33 0 -53 24t-20 55z" />
<glyph unicode="N" horiz-adv-x="1345" d="M152 27v1439h628q217 0 313.5 -80.5t96.5 -300.5v-1146h-39q-82 0 -82 79v1069q0 170 -63.5 230.5t-229.5 60.5h-502v-1439h-41q-37 0 -59 24.5t-22 63.5z" />
<glyph unicode="O" horiz-adv-x="1400" d="M121 551v301q0 643 575 643q580 0 580 -643v-303q0 -639 -580 -639q-575 0 -575 641zM244 549q0 -283 110.5 -413t341.5 -130q236 0 346.5 129t110.5 416v303q1 16 1 31q0 221 -111 363q-116 151 -341 151h-6q-236 0 -344 -148.5t-108 -398.5v-303z" />
<glyph unicode="P" horiz-adv-x="1232" d="M152 23v1443h542q207 0 313.5 -84t106.5 -272v-207q0 -66 -12 -117t-51 -111.5t-129.5 -95t-227.5 -34.5h-422v-606h-36q-39 0 -61.5 22.5t-22.5 61.5zM272 635h422q156 0 227.5 65.5t71.5 202.5v207q0 131 -69.5 199.5t-229.5 68.5h-422v-743z" />
<glyph unicode="Q" horiz-adv-x="1386" d="M123 551v301q0 643 575 643q580 0 580 -643v-303q0 -367 -199 -529q98 -127 201 -258h-66q-72 0 -104 43l-123 160q-123 -55 -289 -55q-575 0 -575 641zM246 549q0 -276 111.5 -409.5t340.5 -133.5q233 0 345 132t112 413v303q0 250 -110.5 397.5t-346.5 147.5 q-233 0 -342.5 -148.5t-109.5 -398.5v-303z" />
<glyph unicode="R" horiz-adv-x="1236" d="M150 23v1443h591q213 0 307.5 -78.5t94.5 -236.5v-172q0 -279 -289 -338l330 -702h-129l-324 698h-459v-698h-36q-37 0 -61.5 22.5t-24.5 61.5zM272 727h469q281 0 281 270v119q0 262 -281 262h-469v-651z" />
<glyph unicode="S" horiz-adv-x="1132" d="M84 -43q0 70 82 70h375q379 0 379 282q0 100 -61.5 171t-213.5 138l-280 127q-127 57 -196 155.5t-69 215.5q0 162 115 256t344 94h426v-32q0 -33 -18.5 -44.5t-65.5 -11.5h-342q-336 0 -336 -262q0 -106 55.5 -172.5t174.5 -120.5l270 -121q317 -141 317 -391 q0 -106 -43 -182t-117.5 -116t-155.5 -57t-177 -17h-463v18z" />
<glyph unicode="T" horiz-adv-x="1196" d="M37 1378v88h1126v-20q0 -39 -14 -53.5t-62 -14.5h-425v-1439h-44q-78 0 -77 81v1358h-504z" />
<glyph unicode="U" horiz-adv-x="1355" d="M154 319v1147h122v-1149q0 -158 69 -224t220 -66h502v1439h121v-1527h-623q-217 0 -314 80.5t-97 299.5z" />
<glyph unicode="V" horiz-adv-x="1239" d="M29 1466h121l481 -1443l459 1443h120l-485 -1527h-133q-45 0 -72 53z" />
<glyph unicode="W" horiz-adv-x="1753" d="M29 1466h116l324 -1400l340 1267h147l340 -1270l322 1403h117l-353 -1527h-73q-86 0 -115 108l-311 1147l-336 -1255h-68q-53 0 -80.5 24.5t-40.5 79.5z" />
<glyph unicode="X" horiz-adv-x="1247" d="M43 -61l518 766l-508 761h127l438 -665l441 665h129l-504 -761l512 -766h-133l-445 663l-440 -663h-135z" />
<glyph unicode="Y" horiz-adv-x="1280" d="M37 1466h125l473 -823l475 823h125l-541 -919v-608h-49q-37 0 -54.5 16t-17.5 57v535z" />
<glyph unicode="Z" horiz-adv-x="1239" d="M68 27l917 1351h-893v88h1024v-88l-921 -1351h964v-27q0 -29 -19.5 -45t-45.5 -16h-1026v88z" />
<glyph unicode="[" horiz-adv-x="849" d="M274 -156v1774h424v-88h-301v-1596h301v-90h-424z" />
<glyph unicode="\" horiz-adv-x="985" d="M129 1538h113l585 -1644h-114z" />
<glyph unicode="]" horiz-adv-x="851" d="M164 -66h301v1596h-301v88h424v-1774h-424v90z" />
<glyph unicode="^" horiz-adv-x="1155" d="M197 1192l305 438h155l306 -438h-136l-247 369l-248 -369h-135z" />
<glyph unicode="_" horiz-adv-x="1218" d="M213 -133h803v-86h-803v86z" />
<glyph unicode="`" horiz-adv-x="569" d="M133 1628l125 62q51 -117 197 -459l-31 -14q-35 -16 -62 28z" />
<glyph unicode="a" horiz-adv-x="1077" d="M113 219v135q0 307 338 308h14q164 -2 356 -31v143q0 96 -57 149.5t-168 53.5h-301q-55 0 -73.5 14.5t-18.5 44.5v29h393q184 0 266 -71.5t82 -219.5v-835h-477q-168 0 -261 71.5t-93 208.5zM236 229q0 -113 68.5 -157.5t164.5 -44.5h352v512q-229 27 -352 26.5 t-178 -50.5t-55 -169v-117z" />
<glyph unicode="b" horiz-adv-x="1103" d="M156 -61v1538h120v-412h297q199 0 304.5 -88t105.5 -260v-432q0 -346 -410 -346h-417zM276 27h297q133 0 210 70.5t77 209.5v389q0 137 -76.5 209t-208.5 72h-299v-950z" />
<glyph unicode="c" horiz-adv-x="995" d="M129 303v393q0 166 112.5 267.5t293.5 101.5h366v-16q0 -35 -17.5 -53.5t-70.5 -18.5h-278q-139 0 -212 -71.5t-73 -209.5v-391q0 -127 74.5 -202.5t210.5 -75.5h376v-23q0 -66 -96 -65h-280q-182 0 -294 98t-112 266z" />
<glyph unicode="d" horiz-adv-x="1095" d="M119 285v432q0 172 104.5 260t302.5 88h297v412h123v-1538h-420q-407 0 -407 346zM242 307q0 -139 75.5 -209.5t208.5 -70.5h297v950h-299q-131 0 -206.5 -71.5t-75.5 -209.5v-389z" />
<glyph unicode="e" horiz-adv-x="1093" d="M113 285v415q0 201 119.5 297.5t308.5 96.5q195 0 316.5 -93.5t121.5 -257.5v-172q0 -115 -125 -114h-618v-172q0 -121 72.5 -189.5t183.5 -68.5h442v-29q0 -31 -17.5 -45t-74.5 -14h-350q-172 0 -275.5 93t-103.5 253zM236 545h532q55 0 71.5 16.5t16.5 69.5v112 q0 121 -82 192t-233 71q-139 0 -222 -71t-83 -192v-198z" />
<glyph unicode="f" horiz-adv-x="849" d="M57 977v88h238v154q0 129 56.5 193.5t203.5 64.5h236v-17q0 -74 -95 -74h-141q-137 0 -137 -151v-170h327v-37q0 -51 -83 -51h-244v-1038h-51q-41 0 -56.5 16t-15.5 61v961h-238z" />
<glyph unicode="g" horiz-adv-x="1116" d="M123 285v434q0 168 103.5 257t283.5 89h463v-1274q0 -119 -75 -199.5t-245 -80.5h-424v28q0 59 82 60h336q100 0 151.5 53t51.5 145v142h-340q-182 0 -284.5 89t-102.5 257zM246 283q0 -78 24.5 -131.5t66.5 -79t84 -35.5t89 -10h340v950h-340q-131 0 -197.5 -73 t-66.5 -187v-434z" />
<glyph unicode="h" horiz-adv-x="1142" d="M152 25v1452h122v-412h371q362 0 363 -324v-802h-41q-82 0 -82 77v723q0 238 -240 238h-371v-1038h-38q-84 0 -84 86z" />
<glyph unicode="i" horiz-adv-x="438" d="M152 1358v119h131v-211h-29q-45 0 -73.5 24.5t-28.5 67.5zM156 25v1040h123v-1126h-43q-80 0 -80 86z" />
<glyph unicode="j" horiz-adv-x="598" d="M-18 -465q0 66 71 66h94q106 0 140.5 52t34.5 165v1247h120v-1247q0 -160 -71.5 -233.5t-223.5 -73.5h-165v24zM317 1358v119h127v-211h-26q-43 0 -72 24.5t-29 67.5z" />
<glyph unicode="k" horiz-adv-x="942" d="M158 16v1461h121v-1538h-39q-43 0 -62.5 17t-19.5 60zM332 545l432 520h129l-434 -520l461 -606h-82q-39 0 -70 36z" />
<glyph unicode="l" horiz-adv-x="442" d="M154 23v1454h120v-1538h-36q-84 0 -84 84z" />
<glyph unicode="m" horiz-adv-x="1550" d="M141 16v1049h934q174 0 253 -71.5t79 -229.5v-825h-37q-86 0 -86 77v748q0 213 -209 213h-239v-1038h-50q-41 0 -57 16t-16 61v961h-449v-1038h-41q-82 -1 -82 77z" />
<glyph unicode="n" horiz-adv-x="1136" d="M143 25v1040h484q205 0 285.5 -76t80.5 -264v-786h-41q-84 0 -84 86v700q0 147 -52 199.5t-189 52.5h-361v-1038h-39q-84 0 -84 86z" />
<glyph unicode="o" horiz-adv-x="1146" d="M123 367v270q0 240 113.5 348.5t334.5 108.5q223 0 336 -107.5t113 -349.5v-270q0 -242 -110.5 -349.5t-338.5 -107.5q-223 0 -335.5 107.5t-112.5 349.5zM246 371q0 -197 81 -284t244.5 -87t244.5 85t81 286v262q0 193 -72.5 280.5t-253.5 87.5q-176 0 -250.5 -88 t-74.5 -280v-262z" />
<glyph unicode="p" horiz-adv-x="1095" d="M141 -377v1442h430q397 0 398 -365v-399q0 -362 -398 -362h-307v-398h-26q-97 0 -97 82zM264 27h307q274 0 275 274v399q0 276 -275 277h-307v-950z" />
<glyph unicode="q" horiz-adv-x="1091" d="M127 301v399q0 365 397 365h430v-1524h-36q-86 0 -87 82v316h-307q-397 0 -397 362zM250 301q0 -274 274 -274h307v950h-307q-274 0 -274 -277v-399z" />
<glyph unicode="r" horiz-adv-x="798" d="M141 16v787q0 131 64.5 196.5t208.5 65.5h346v-4q0 -47 -20.5 -65.5t-67.5 -18.5h-258q-152 0 -152 -174v-864h-37q-84 -1 -84 77z" />
<glyph unicode="s" horiz-adv-x="925" d="M100 784.5q0 112.5 90.5 196.5t264.5 84h329v-31q0 -57 -90 -57h-239q-117 0 -174.5 -54.5t-57.5 -138.5q0 -145 164 -196l197 -62q258 -74 258 -295q0 -141 -98.5 -216.5t-272.5 -75.5h-362v22q0 66 84 66h278q117 0 184.5 51t67.5 153q0 76 -34 120t-124 75 q-33 10 -99.5 31.5t-98.5 31.5q-141 47 -204 115t-63 180.5z" />
<glyph unicode="t" horiz-adv-x="694" d="M31 977v88h200v369h123v-369h285v-25q0 -33 -20.5 -48t-77.5 -15h-187v-752q0 -96 32 -147t122 -51h149v-23q0 -66 -92 -65h-57q-147 0 -212 71.5t-65 214.5v752h-200z" />
<glyph unicode="u" horiz-adv-x="1114" d="M133 334v731h121v-731q0 -172 62.5 -239.5t218.5 -67.5h315v1038h123v-1126h-438q-213 0 -307.5 89t-94.5 306z" />
<glyph unicode="v" horiz-adv-x="970" d="M25 1065h106l361 -1053l339 1053h107l-358 -1126h-119q-59 0 -82 69z" />
<glyph unicode="w" horiz-adv-x="1413" d="M10 1065h105l250 -1018l270 971h139l266 -971l254 1018h105l-283 -1126h-74q-63 0 -88 81l-249 891l-275 -972h-70q-41 0 -59 20.5t-31 65.5z" />
<glyph unicode="x" horiz-adv-x="1028" d="M35 -61l416 563l-400 563h127l332 -481l332 481h127l-394 -563l410 -563h-127l-348 493l-348 -493h-127z" />
<glyph unicode="y" horiz-adv-x="1114" d="M131 285v780h123v-776q0 -137 48 -202q45 -61 157 -61q7 0 14 1q231 4 377 22v1016h123v-1272q0 -127 -81 -204.5t-251 -77.5h-451v28q0 37 19.5 52.5t66.5 15.5h365q117 0 163 48t46 142v166q-199 -18 -389 -24q-7 0 -15 -1q-157 0 -234 87q-81 90 -81 260z" />
<glyph unicode="z" horiz-adv-x="997" d="M74 29l680 948h-652v88h777v-86l-689 -952h719v-37q0 -23 -16 -37t-39 -14h-780v90z" />
<glyph unicode="{" horiz-adv-x="856" d="M205 686v82q190 16 190 184v422q0 246 230 246h96v-74q-217 -4 -217 -174v-407q0 -166 -127 -238q127 -70 127 -240v-391q0 -96 48 -133t169 -37v-76h-111q-215 0 -215 236v414q0 82 -52 128t-138 58z" />
<glyph unicode="|" horiz-adv-x="606" d="M266 -106v1677h103v-1677h-103z" />
<glyph unicode="}" horiz-adv-x="856" d="M156 -74q121 2 169 38t48 132v391q0 170 127 240q-127 72 -127 238v407q0 90 -52.5 132t-164.5 42v74h96q229 0 229 -246v-422q0 -94 48.5 -136t142.5 -48v-82q-190 -25 -191 -186v-414q0 -236 -217 -236h-108v76z" />
<glyph unicode="~" horiz-adv-x="1482" d="M127 555q8 152 97 247t237 95q106 0 186 -50t164 -155q102 -129 233 -129q100 0 162 67.5t68 190.5h104q-8 -152 -89 -250t-240 -98q-184 0 -330 176q-70 88 -125 125t-129 37q-109 0 -168 -66.5t-66 -189.5h-104z" />
<glyph unicode="&#xa1;" horiz-adv-x="604" d="M221 -111l39 1102h90l35 -1102h-164zM229 1284v182h146v-182h-146z" />
<glyph unicode="&#xa2;" horiz-adv-x="993" d="M131 303v393q0 166 112.5 267.5t293.5 101.5h159l66 248h96l-65 -248h110v-16q0 -35 -17.5 -53.5t-70.5 -18.5h-45l-250 -950h393v-23q0 -66 -96 -65h-280q-27 0 -39 2l-60 -232h-98l63 246q-127 35 -199.5 125t-72.5 223zM252 305q0 -209 178 -264l246 936h-139 q-139 0 -212 -71.5t-73 -209.5v-391z" />
<glyph unicode="&#xa3;" horiz-adv-x="1153" d="M78 47q78 43 125 136t47 200v287h-160v88h160v342q0 201 124 298t341 97q145 0 346 -55l-8 -82q-180 49 -344 49q-160 0 -250 -76t-90 -231v-342h342v-21q0 -68 -97 -67h-245v-267q0 -111 -48.5 -211t-144.5 -165h914v-23q0 -66 -95 -65h-917v108z" />
<glyph unicode="&#xa4;" horiz-adv-x="1105" d="M66 158l112 114q-63 96 -63 263v77q0 172 69 269l-114 116l67 70l113 -113q109 84 303 84q186 0 293 -75l108 108l72 -72l-108 -108q76 -104 75 -279v-77q0 -168 -65 -269l108 -106l-71 -72l-105 105q-111 -86 -307 -87q-201 0 -311 93l-109 -111zM227 535 q0 -170 84 -260.5t242 -90.5t243 88t85 263v77q0 156 -81 253.5t-247 97.5q-154 0 -240 -90.5t-86 -260.5v-77z" />
<glyph unicode="&#xa5;" horiz-adv-x="1302" d="M51 1466h125l473 -823q215 369 475 823h125l-483 -821h399v-20q0 -66 -92 -66h-356l-8 -12v-225h456v-21q0 -33 -18.5 -50.5t-73.5 -17.5h-364v-294h-50q-37 0 -54 16t-17 57v221h-398v89h398v225l-8 12h-390v86h340q-319 549 -479 821z" />
<glyph unicode="&#xa6;" horiz-adv-x="434" d="M168 -61v520h100v-520h-100zM168 946v520h100v-520h-100z" />
<glyph unicode="&#xa7;" horiz-adv-x="925" d="M86 684q0 76 49 138.5t150 92.5q-199 90 -199 275q0 111 89 193.5t263 82.5h332v-26q0 -61 -90 -62h-242q-117 0 -174 -52t-57 -136q0 -156 166 -205l196 -55q127 -41 192.5 -116t65.5 -173q0 -174 -184 -233q184 -88 184 -265q0 -143 -99 -224t-271 -81h-365v21 q0 68 86 67h279q115 0 182.5 56.5t67.5 160.5q0 72 -37 116t-121 73l-199 69q-131 49 -197.5 114t-66.5 169zM207 684q0 -145 166 -195l63 -18h21q113 0 181.5 46t68.5 124q0 74 -37 118t-121 72l-41 13h-70q-117 0 -174 -43t-57 -117z" />
<glyph unicode="&#xa8;" horiz-adv-x="1335" d="M266 1313v164h148v-164h-148zM967 1313v164h147v-164h-147z" />
<glyph unicode="&#xa9;" horiz-adv-x="1769" d="M78 709q0 371 220 589t591 218q369 0 589 -218.5t220 -588.5q0 -367 -220.5 -585t-589 -218t-589.5 217t-221 586zM168 708.5q0 -335.5 190.5 -527t528.5 -191.5q336 0 528.5 192.5t192.5 526.5q0 336 -193.5 529.5t-527.5 193.5q-336 0 -527.5 -194t-191.5 -529.5z M475 547v291q0 168 113.5 269t294.5 101h276v-16q0 -35 -16.5 -53.5t-71.5 -18.5h-188q-139 0 -212 -72.5t-73 -209.5v-289q0 -129 75 -205t210 -76h286v-20q0 -66 -96 -66h-190q-182 0 -295 98.5t-113 266.5z" />
<glyph unicode="&#xaa;" horiz-adv-x="747" d="M96 879v88q0 201 226 196q43 0 215 -22v116q0 121 -138 121h-186q-37 0 -49 11.5t-12 33.5v23h247q219 0 219 -189v-557h-296q-106 0 -166 46.5t-60 132.5zM176 885q0 -119 146 -119h215v311q-158 14 -215 15q-74 0 -110 -30t-36 -99v-78z" />
<glyph unicode="&#xab;" horiz-adv-x="899" d="M57 528l308 535l75 -43l-282 -492l299 -489l-70 -45zM440 528l303 535l78 -45l-280 -490l297 -491l-70 -43z" />
<glyph unicode="&#xac;" horiz-adv-x="1290" d="M82 938v86h1087v-547h-118v461h-969z" />
<glyph unicode="&#xad;" horiz-adv-x="638" d="M47 709v88h543v-88h-543z" />
<glyph unicode="&#xae;" horiz-adv-x="1779" d="M90 709q0 371 220 589t591 218q369 0 589 -218.5t220 -588.5q0 -367 -220 -585t-589 -218t-590 217t-221 586zM180 708.5q0 -335.5 190.5 -527t528.5 -191.5q336 0 528.5 192.5t192.5 526.5q0 336 -193.5 529.5t-527.5 193.5q-336 0 -527.5 -194t-191.5 -529.5zM575 240 v968h392q283 0 282 -223v-100q0 -84 -49 -147.5t-156 -80.5l236 -475h-96l-236 459h-278v-459h-41q-54 1 -54 58zM670 719h297q190 0 190 178v61q0 172 -190 172h-297v-411z" />
<glyph unicode="&#xaf;" horiz-adv-x="1013" d="M-20 1536v88h1052v-88h-1052z" />
<glyph unicode="&#xb0;" horiz-adv-x="712" d="M100 1208q0 109 73 178.5t183.5 69.5t183 -69.5t72.5 -178.5q0 -111 -72.5 -179t-183.5 -68q-113 0 -184.5 68t-71.5 179zM168 1208q0 -84 50 -133t136 -49q84 0 136.5 49t52.5 133q0 82 -52.5 133.5t-136.5 51.5q-86 0 -136 -51.5t-50 -133.5z" />
<glyph unicode="&#xb1;" horiz-adv-x="1247" d="M119 766v86h434v420h123v-420h438v-86h-438v-426h-123v426h-434zM139 16v86h955v-86h-955z" />
<glyph unicode="&#xb2;" horiz-adv-x="634" d="M88 715v96q0 78 68 127l227 172q78 57 78 170q0 70 -46 108.5t-136 36.5q-66 -2 -183 -24v65q92 23 187 25q111 4 182.5 -54.5t71.5 -156.5q0 -129 -97 -205l-225 -176q-49 -39 -49 -102v-72h381v-27q0 -37 -41 -36h-359q-33 0 -46 11t-13 42z" />
<glyph unicode="&#xb3;" horiz-adv-x="634" d="M82 659v29q0 35 37 29q113 -10 145 -10q104 0 156.5 37.5t52.5 129.5q0 174 -201 175h-129q-10 0 -10 14v49h139q180 0 181 174q0 139 -181 139q-10 0 -176 -18l-2 61q96 23 180 23q113 0 184.5 -50t69.5 -159q-4 -143 -108 -195q66 -27 98.5 -85t32.5 -117 q0 -244 -287 -244q-59 0 -182 18z" />
<glyph unicode="&#xb4;" horiz-adv-x="577" d="M160 1237l143 258h127l-164 -213q-33 -45 -98 -45h-8z" />
<glyph unicode="&#xb5;" horiz-adv-x="1130" d="M143 -383v1448h121v-731q0 -186 59.5 -246.5t221.5 -60.5h315v1038h123v-1126h-438q-182 0 -281 65v-463h-45q-39 0 -57.5 17.5t-18.5 58.5z" />
<glyph unicode="&#xb6;" horiz-adv-x="1071" d="M59 1073q4 188 110.5 290.5t297.5 102.5h457v-1788h-37q-39 0 -55.5 16.5t-16.5 59.5v1624h-280v-1700h-31q-39 0 -56.5 16.5t-17.5 59.5v908q-152 16 -263.5 123.5t-107.5 287.5z" />
<glyph unicode="&#xb7;" horiz-adv-x="610" d="M231 668v163h146v-163h-146z" />
<glyph unicode="&#xb8;" horiz-adv-x="626" d="M145 -457q2 8 6.5 29.5t4.5 30.5q66 -8 92 -9q92 0 140 33t48 88q0 37 -38 55.5t-150 22.5l45 156h90l-35 -105q176 -14 176 -127q0 -76 -69.5 -131t-198.5 -55q-64 0 -111 12z" />
<glyph unicode="&#xb9;" horiz-adv-x="634" d="M184 1401v65h193q23 0 22 -24v-778h-41q-20 0 -28 10t-8 37v690h-138z" />
<glyph unicode="&#xba;" horiz-adv-x="741" d="M84 977v225q0 281 282.5 281t282.5 -281v-225q0 -279 -282.5 -279t-282.5 279zM168 977q0 -217 198.5 -217t198.5 217v225q0 94 -49 152.5t-149 58.5q-96 0 -147.5 -54t-51.5 -157v-225z" />
<glyph unicode="&#xbb;" horiz-adv-x="899" d="M57 39l299 489l-282 490l80 45l303 -535l-328 -534zM440 39l299 489l-282 492l75 43l306 -535l-328 -534z" />
<glyph unicode="&#xbc;" horiz-adv-x="1638" d="M168 1401v65h192q23 0 23 -24v-778h-41q-20 0 -28.5 10t-8.5 37v690h-137zM279 -90l921 1556h98l-921 -1556h-98zM893 61v66l332 543q10 16 17 24t18.5 13.5t29.5 5.5h99v-588h81v-37q0 -27 -28 -27h-53v-151h-43q-37 0 -37 53v98h-416zM977 125h332v541z" />
<glyph unicode="&#xbd;" horiz-adv-x="1638" d="M160 1401v65h192q23 0 23 -24v-778h-41q-20 0 -28.5 10t-8.5 37v690h-137zM229 -90l922 1556h98l-921 -1556h-99zM1020 -37v94q0 74 70 127l227 172q78 61 78 170q0 70 -47.5 110t-135.5 38q-63 -2 -184 -25v64q106 25 189 26q111 4 182 -54t71 -159q0 -129 -96 -204 l-225 -175q-49 -37 -49 -104v-70h379v-26q0 -37 -39 -37h-359q-35 0 -48 11t-13 42z" />
<glyph unicode="&#xbe;" horiz-adv-x="1638" d="M135 659v29q0 35 37 29q113 -10 147 -10q106 0 156.5 33.5t50.5 133.5q0 174 -198 175h-131q-10 0 -11 14v49h142q178 0 178 174q0 139 -178 139q-61 0 -164 -16q-2 0 -7 -1t-7 -1q0 10 -1.5 31.5t-1.5 29.5q96 23 183 23q113 0 184.5 -50t69.5 -159q-4 -145 -111 -195 q68 -27 99.5 -85t31.5 -117q0 -244 -285 -244q-61 0 -184 18zM352 -90l920 1556h100l-923 -1556h-97zM924 61v66l331 543q27 43 66 43h98v-588h82v-37q0 -27 -28 -27h-54v-151h-43q-37 0 -37 53v98h-415zM1008 125h331v541z" />
<glyph unicode="&#xbf;" horiz-adv-x="1095" d="M90 240q0 221 191 360l190 139q49 37 65.5 75t16.5 116v100h123v-104q0 -166 -74 -215l-201 -140q-106 -74 -148 -149.5t-42 -171.5q0 -141 92 -207t285 -66q164 0 389 62q2 -14 4 -41t4 -43q-217 -66 -391 -66q-240 0 -372 88.5t-132 262.5zM541 1280v186h145v-186h-145 z" />
<glyph unicode="&#xc0;" horiz-adv-x="1296" d="M37 -61l516 1527h147q18 0 36 -15t24 -34l502 -1478h-123l-183 540q-39 -70 -131 -69h-506l-159 -471h-123zM346 500h606l-303 901zM446 1890h132l163 -278h-24q-63 0 -96 45z" />
<glyph unicode="&#xc1;" horiz-adv-x="1296" d="M37 -61l516 1527h147q18 0 36 -15t24 -34l502 -1478h-123l-183 540q-39 -70 -131 -69h-506l-159 -471h-123zM346 500h606l-303 901zM535 1612l165 278h129l-174 -233q-33 -45 -96 -45h-24z" />
<glyph unicode="&#xc2;" horiz-adv-x="1296" d="M37 -61l516 1527h147q18 0 36 -15t24 -34l502 -1478h-123l-183 540q-39 -70 -131 -69h-506l-159 -471h-123zM346 500h606l-303 901zM373 1606l209 256h127l209 -256h-107l-166 202l-166 -202h-106z" />
<glyph unicode="&#xc3;" horiz-adv-x="1296" d="M37 -61l516 1527h147q18 0 36 -15t24 -34l502 -1478h-123l-183 540q-39 -70 -131 -69h-506l-159 -471h-123zM244 1624q8 86 70.5 140.5t146.5 54.5q78 0 178 -58q98 -49 152 -49q119 0 137 107h82q-4 -80 -65.5 -135.5t-145.5 -55.5q-92 0 -197 62q-86 47 -139 47 q-109 0 -135 -113h-84zM346 500h606l-303 901z" />
<glyph unicode="&#xc4;" horiz-adv-x="1296" d="M37 -61l516 1527h147q18 0 36 -15t24 -34l502 -1478h-123l-183 540q-39 -70 -131 -69h-506l-159 -471h-123zM346 500h606l-303 901zM418 1657v145h133v-145h-133zM754 1657v145h131v-145h-131z" />
<glyph unicode="&#xc5;" horiz-adv-x="1296" d="M37 -61l516 1527h147q18 0 36 -15t24 -34l502 -1478h-123l-183 540q-39 -70 -131 -69h-506l-159 -471h-123zM346 500h606l-303 901zM440 1751q0 86 58.5 141.5t146.5 55.5t145.5 -55.5t57.5 -141.5q0 -88 -57.5 -143.5t-145.5 -55.5t-146.5 56.5t-58.5 142.5zM516 1751 q0 -53 37 -91t92 -38q53 0 91 38t38 91t-38 93t-91 40q-55 0 -92 -39t-37 -94z" />
<glyph unicode="&#xc6;" horiz-adv-x="1996" d="M35 -61l678 1527h1198v-16q0 -37 -15.5 -54.5t-56.5 -17.5h-715v-581h717v-23q0 -33 -14.5 -49t-54.5 -16h-648v-682h811v-21q0 -68 -69 -67h-865v497q-53 -27 -104 -26h-524q-55 -123 -209 -471h-129zM416 500h585v878h-198z" />
<glyph unicode="&#xc7;" horiz-adv-x="1140" d="M125 313v787q0 174 114.5 270t321.5 96h479v-22q0 -33 -18 -49.5t-74 -16.5h-381q-322 0 -321 -307v-743q0 -127 71.5 -214t202.5 -87h543v-23q0 -66 -96 -65h-256l-31 -95q176 -14 176 -127q0 -76 -69.5 -131t-198.5 -55q-63 0 -111 12q2 8 6 29.5t4 30.5q66 -8 93 -9 q92 0 140 33t48 88q0 37 -38 55.5t-150 22.5l41 146h-109q-172 0 -279.5 101t-107.5 273z" />
<glyph unicode="&#xc8;" horiz-adv-x="1177" d="M152 -61v1527h907v-16q0 -37 -15.5 -54.5t-56.5 -17.5h-715v-581h717v-23q0 -33 -14 -49t-55 -16h-648v-682h811v-21q0 -68 -69 -67h-862zM397 1890h131l164 -278h-24q-63 0 -97 45z" />
<glyph unicode="&#xc9;" horiz-adv-x="1177" d="M152 -61v1527h907v-16q0 -37 -15.5 -54.5t-56.5 -17.5h-715v-581h717v-23q0 -33 -14 -49t-55 -16h-648v-682h811v-21q0 -68 -69 -67h-862zM481 1612l166 278h129l-174 -233q-33 -45 -96 -45h-25z" />
<glyph unicode="&#xca;" horiz-adv-x="1177" d="M152 -61v1527h907v-16q0 -37 -15.5 -54.5t-56.5 -17.5h-715v-581h717v-23q0 -33 -14 -49t-55 -16h-648v-682h811v-21q0 -68 -69 -67h-862zM324 1606l208 256h127l209 -256h-106l-166 202l-166 -202h-106z" />
<glyph unicode="&#xcb;" horiz-adv-x="1177" d="M152 -61v1527h907v-16q0 -37 -15.5 -54.5t-56.5 -17.5h-715v-581h717v-23q0 -33 -14 -49t-55 -16h-648v-682h811v-21q0 -68 -69 -67h-862zM385 1657v145h133v-145h-133zM721 1657v145h131v-145h-131z" />
<glyph unicode="&#xcc;" horiz-adv-x="466" d="M82 1890h131l164 -278h-25q-63 0 -96 45zM174 23v1443h125v-1527h-43q-37 0 -59.5 22.5t-22.5 61.5z" />
<glyph unicode="&#xcd;" horiz-adv-x="466" d="M84 1612l166 278h129l-174 -233q-33 -45 -96 -45h-25zM174 23v1443h125v-1527h-43q-37 0 -59.5 22.5t-22.5 61.5z" />
<glyph unicode="&#xce;" horiz-adv-x="466" d="M-41 1606l209 256h127l209 -256h-107l-166 202l-165 -202h-107zM174 23v1443h125v-1527h-43q-37 0 -59.5 22.5t-22.5 61.5z" />
<glyph unicode="&#xcf;" horiz-adv-x="466" d="M0 1657v145h133v-145h-133zM174 23v1443h125v-1527h-43q-37 0 -59.5 22.5t-22.5 61.5zM336 1657v145h131v-145h-131z" />
<glyph unicode="&#xd0;" horiz-adv-x="1433" d="M63 664v84h187v718h565q231 0 350 -108.5t119 -286.5v-741q0 -176 -118.5 -283.5t-350.5 -107.5h-565v725h-187zM367 27h448q164 0 257 80.5t93 222.5v741q0 152 -91 229.5t-259 77.5h-448v-630h387v-21q0 -31 -18.5 -47t-71.5 -16h-297v-637z" />
<glyph unicode="&#xd1;" horiz-adv-x="1345" d="M152 27v1439h628q217 0 313.5 -80.5t96.5 -300.5v-1146h-39q-82 0 -82 79v1069q0 170 -63.5 230.5t-229.5 60.5h-502v-1439h-41q-37 0 -59 24.5t-22 63.5zM242 1624q8 86 70.5 140.5t146.5 54.5q78 0 178 -58q98 -49 151 -49q119 0 138 107h82q-4 -80 -65.5 -135.5 t-145.5 -55.5q-92 0 -197 62q-86 47 -139 47q-109 0 -135 -113h-84z" />
<glyph unicode="&#xd2;" horiz-adv-x="1400" d="M121 551v301q0 643 575 643q580 0 580 -643v-303q0 -639 -580 -639q-575 0 -575 641zM244 549q0 -283 110.5 -413t341.5 -130q236 0 346.5 129t110.5 416v303q8 242 -109.5 394.5t-347.5 150.5q-236 0 -344 -148.5t-108 -398.5v-303zM500 1890h131l164 -278h-25 q-63 0 -96 45z" />
<glyph unicode="&#xd3;" horiz-adv-x="1400" d="M121 551v301q0 643 575 643q580 0 580 -643v-303q0 -639 -580 -639q-575 0 -575 641zM244 549q0 -283 110.5 -413t341.5 -130q236 0 346.5 129t110.5 416v303q8 242 -109.5 394.5t-347.5 150.5q-236 0 -344 -148.5t-108 -398.5v-303zM563 1612l166 278h129l-174 -233 q-33 -45 -96 -45h-25z" />
<glyph unicode="&#xd4;" horiz-adv-x="1400" d="M121 551v301q0 643 575 643q580 0 580 -643v-303q0 -639 -580 -639q-575 0 -575 641zM244 549q0 -283 110.5 -413t341.5 -130q236 0 346.5 129t110.5 416v303q8 242 -109.5 394.5t-347.5 150.5q-236 0 -344 -148.5t-108 -398.5v-303zM393 1606l209 256h127l209 -256h-107 l-165 202l-166 -202h-107z" />
<glyph unicode="&#xd5;" horiz-adv-x="1400" d="M121 551v301q0 643 575 643q580 0 580 -643v-303q0 -639 -580 -639q-575 0 -575 641zM244 549q0 -283 110.5 -413t341.5 -130q236 0 346.5 129t110.5 416v303q8 242 -109.5 394.5t-347.5 150.5q-236 0 -344 -148.5t-108 -398.5v-303zM281 1624q8 86 70.5 140.5 t146.5 54.5q78 0 178 -58q98 -49 151 -49q119 0 138 107h82q-4 -80 -65.5 -135.5t-145.5 -55.5q-92 0 -197 62q-86 47 -139 47q-109 0 -135 -113h-84z" />
<glyph unicode="&#xd6;" horiz-adv-x="1400" d="M121 551v301q0 643 575 643q580 0 580 -643v-303q0 -639 -580 -639q-575 0 -575 641zM244 549q0 -283 110.5 -413t341.5 -130q236 0 346.5 129t110.5 416v303q8 242 -109.5 394.5t-347.5 150.5q-236 0 -344 -148.5t-108 -398.5v-303zM442 1657v145h133v-145h-133z M778 1657v145h131v-145h-131z" />
<glyph unicode="&#xd7;" horiz-adv-x="1146" d="M166 356l340 344q-61 59 -182 180t-158 156l65 66l342 -336q74 72 345 336l67 -68l-344 -334l344 -344q-8 -6 -32.5 -30.5t-39.5 -36.5l-340 340q-47 -47 -169.5 -169t-172.5 -171z" />
<glyph unicode="&#xd8;" horiz-adv-x="1400" d="M123 551v301q0 643 575 643q158 0 267 -47l63 151h113l-82 -202q219 -156 219 -545v-303q0 -639 -580 -639q-139 0 -241 39l-66 -160h-110l84 203q-242 149 -242 559zM246 549q0 -317 162 -455l514 1247q-96 57 -224 58q-219 0 -335.5 -151.5t-116.5 -395.5v-303zM496 41 q86 -35 202 -35q457 0 457 545v303q0 268 -145 424z" />
<glyph unicode="&#xd9;" horiz-adv-x="1355" d="M154 319v1147h122v-1149q0 -158 69 -224t220 -66h502v1439h121v-1527h-623q-217 0 -314 80.5t-97 299.5zM504 1890h131l164 -278h-25q-63 0 -96 45z" />
<glyph unicode="&#xda;" horiz-adv-x="1355" d="M154 319v1147h122v-1149q0 -158 69 -224t220 -66h502v1439h121v-1527h-623q-217 0 -314 80.5t-97 299.5zM588 1612l166 278h129l-174 -233q-33 -45 -97 -45h-24z" />
<glyph unicode="&#xdb;" horiz-adv-x="1355" d="M154 319v1147h122v-1149q0 -158 69 -224t220 -66h502v1439h121v-1527h-623q-217 0 -314 80.5t-97 299.5zM389 1606l209 256h127l209 -256h-107l-165 202l-166 -202h-107z" />
<glyph unicode="&#xdc;" horiz-adv-x="1355" d="M154 319v1147h122v-1149q0 -158 69 -224t220 -66h502v1439h121v-1527h-623q-217 0 -314 80.5t-97 299.5zM455 1657v145h133v-145h-133zM791 1657v145h131v-145h-131z" />
<glyph unicode="&#xdd;" horiz-adv-x="1280" d="M37 1466h125l473 -823l475 823h125l-541 -919v-608h-49q-37 0 -54.5 16t-17.5 57v535zM545 1612l166 278h129l-174 -233q-33 -45 -97 -45h-24z" />
<glyph unicode="&#xde;" horiz-adv-x="1216" d="M156 12v1454h114v-352h363q244 0 363.5 -90t119.5 -315q0 -231 -112.5 -329.5t-354.5 -98.5h-379v-342h-45q-37 0 -53 16t-16 57zM270 365h383q197 0 274 85t77 252q0 188 -84 257t-271 69h-379v-663z" />
<glyph unicode="&#xdf;" horiz-adv-x="1275" d="M131 12v1049q0 240 107.5 337t328.5 97q178 0 286 -78t108 -198q0 -55 -16.5 -109.5t-33 -86.5t-51.5 -93q-78 -135 -78 -166q0 -43 29 -74t162 -129q121 -86 166 -167t45 -171q0 -137 -98.5 -226t-266.5 -89q-221 0 -334 143l78 68q106 -115 252 -115q104 0 173 62.5 t69 154.5q0 70 -34 128.5t-124 125.5q-154 109 -195.5 166t-41.5 123q0 53 92 207q57 98 70.5 137t13.5 88q0 88 -76 149.5t-199 61.5q-154 0 -232.5 -76t-78.5 -278v-1114h-45q-41 0 -58.5 16t-17.5 57z" />
<glyph unicode="&#xe0;" horiz-adv-x="1077" d="M113 219v135q0 313 352 308q164 -2 356 -31v143q0 96 -57 149.5t-168 53.5h-301q-55 0 -73.5 14.5t-18.5 44.5v29h393q184 0 266 -71.5t82 -219.5v-835h-477q-168 0 -261 71.5t-93 208.5zM236 229q0 -113 68.5 -157.5t164.5 -44.5h352v512q-229 27 -352 26.5t-178 -50.5 t-55 -169v-117zM389 1481h131l164 -279h-25q-63 0 -96 45z" />
<glyph unicode="&#xe1;" horiz-adv-x="1077" d="M113 219v135q0 313 352 308q164 -2 356 -31v143q0 96 -57 149.5t-168 53.5h-301q-55 0 -73.5 14.5t-18.5 44.5v29h393q184 0 266 -71.5t82 -219.5v-835h-477q-168 0 -261 71.5t-93 208.5zM236 229q0 -113 68.5 -157.5t164.5 -44.5h352v512q-229 27 -352 26.5t-178 -50.5 t-55 -169v-117zM453 1202l165 279h130l-175 -234q-33 -45 -96 -45h-24z" />
<glyph unicode="&#xe2;" horiz-adv-x="1077" d="M113 219v135q0 313 352 308q164 -2 356 -31v143q0 96 -57 149.5t-168 53.5h-301q-55 0 -73.5 14.5t-18.5 44.5v29h393q184 0 266 -71.5t82 -219.5v-835h-477q-168 0 -261 71.5t-93 208.5zM236 229q0 -113 68.5 -157.5t164.5 -44.5h352v512q-229 27 -352 26.5t-178 -50.5 t-55 -169v-117zM274 1196l209 256h127l209 -256h-106l-166 203l-166 -203h-107z" />
<glyph unicode="&#xe3;" horiz-adv-x="1077" d="M113 219v135q0 313 352 308q164 -2 356 -31v143q0 96 -57 149.5t-168 53.5h-301q-55 0 -73.5 14.5t-18.5 44.5v29h393q184 0 266 -71.5t82 -219.5v-835h-477q-168 0 -261 71.5t-93 208.5zM150 1214q8 86 70.5 140.5t146.5 54.5q78 0 178 -57q98 -49 151 -49 q119 0 138 106h81q-4 -80 -65.5 -135t-144.5 -55q-92 0 -197 61q-86 47 -139 47q-109 0 -136 -113h-83zM236 229q0 -113 68.5 -157.5t164.5 -44.5h352v512q-229 27 -352 26.5t-178 -50.5t-55 -169v-117z" />
<glyph unicode="&#xe4;" horiz-adv-x="1077" d="M113 219v135q0 313 352 308q164 -2 356 -31v143q0 96 -57 149.5t-168 53.5h-301q-55 0 -73.5 14.5t-18.5 44.5v29h393q184 0 266 -71.5t82 -219.5v-835h-477q-168 0 -261 71.5t-93 208.5zM236 229q0 -113 68.5 -157.5t164.5 -44.5h352v512q-229 27 -352 26.5t-178 -50.5 t-55 -169v-117zM322 1247v146h133v-146h-133zM657 1247v146h131v-146h-131z" />
<glyph unicode="&#xe5;" horiz-adv-x="1077" d="M113 219v135q0 313 352 308q164 -2 356 -31v143q0 96 -57 149.5t-168 53.5h-301q-55 0 -73.5 14.5t-18.5 44.5v29h393q184 0 266 -71.5t82 -219.5v-835h-477q-168 0 -261 71.5t-93 208.5zM236 229q0 -113 68.5 -157.5t164.5 -44.5h352v512q-229 27 -352 26.5t-178 -50.5 t-55 -169v-117zM348 1341q0 86 58.5 141.5t146.5 55.5t145.5 -55.5t57.5 -141.5q0 -88 -57.5 -143t-145.5 -55t-146.5 56t-58.5 142zM424 1341q0 -53 37 -91t92 -38q53 0 91 38t38 91.5t-38 93.5t-91 40q-55 0 -92 -39.5t-37 -94.5z" />
<glyph unicode="&#xe6;" horiz-adv-x="1761" d="M113 219v127q0 313 331 307q139 -2 357 -30v151q0 96 -57.5 149.5t-168.5 53.5h-280q-55 0 -74.5 15.5t-19.5 43.5v29h374q113 0 178.5 -24.5t120.5 -84.5q125 139 351 140q195 0 310.5 -98.5t115.5 -272.5v-158q0 -59 -29 -86.5t-94 -27.5h-606v-183q0 -117 67.5 -180 t188.5 -63h432v-29q0 -29 -19.5 -44t-74.5 -15h-338q-127 0 -193.5 28.5t-116.5 100.5q-94 -129 -231 -129h-170q-168 0 -261 71.5t-93 208.5zM225 229q0 -113 73 -157.5t171 -44.5h129q84 0 143.5 57t59.5 139v307q-229 27 -352 27q-117 0 -170.5 -51t-53.5 -168v-109z M922 539h520q55 0 74.5 18t19.5 70v98q0 123 -81 203t-230 80q-137 0 -220 -79t-83 -196v-194z" />
<glyph unicode="&#xe7;" horiz-adv-x="995" d="M129 303v393q0 166 112.5 267.5t293.5 101.5h366v-16q0 -35 -17.5 -53.5t-70.5 -18.5h-278q-139 0 -212 -71.5t-73 -209.5v-391q0 -127 74.5 -202.5t210.5 -75.5h376v-23q0 -66 -96 -65h-190l-31 -95q176 -14 176 -127q0 -76 -69.5 -131t-198.5 -55q-63 0 -111 12 q2 8 6 29.5t4 30.5q66 -8 93 -9q92 0 140 33t48 88q0 37 -38 55.5t-150 22.5l41 146q-182 0 -294 98t-112 266z" />
<glyph unicode="&#xe8;" horiz-adv-x="1093" d="M113 285v415q0 201 119.5 297.5t308.5 96.5q195 0 316.5 -93.5t121.5 -257.5v-172q0 -115 -125 -114h-618v-172q0 -121 72.5 -189.5t183.5 -68.5h442v-29q0 -31 -17.5 -45t-74.5 -14h-350q-172 0 -275.5 93t-103.5 253zM236 545h532q55 0 71.5 16.5t16.5 69.5v112 q0 121 -82 192t-233 71q-139 0 -222 -71t-83 -192v-198zM356 1481h131l164 -279h-24q-63 0 -97 45z" />
<glyph unicode="&#xe9;" horiz-adv-x="1093" d="M113 285v415q0 201 119.5 297.5t308.5 96.5q195 0 316.5 -93.5t121.5 -257.5v-172q0 -115 -125 -114h-618v-172q0 -121 72.5 -189.5t183.5 -68.5h442v-29q0 -31 -17.5 -45t-74.5 -14h-350q-172 0 -275.5 93t-103.5 253zM236 545h532q55 0 71.5 16.5t16.5 69.5v112 q0 121 -82 192t-233 71q-139 0 -222 -71t-83 -192v-198zM420 1202l166 279h129l-174 -234q-33 -45 -97 -45h-24z" />
<glyph unicode="&#xea;" horiz-adv-x="1093" d="M113 285v415q0 201 119.5 297.5t308.5 96.5q195 0 316.5 -93.5t121.5 -257.5v-172q0 -115 -125 -114h-618v-172q0 -121 72.5 -189.5t183.5 -68.5h442v-29q0 -31 -17.5 -45t-74.5 -14h-350q-172 0 -275.5 93t-103.5 253zM236 545h532q55 0 71.5 16.5t16.5 69.5v112 q0 121 -82 192t-233 71q-139 0 -222 -71t-83 -192v-198zM283 1196l209 256h126l209 -256h-106l-166 203l-166 -203h-106z" />
<glyph unicode="&#xeb;" horiz-adv-x="1093" d="M113 285v415q0 201 119.5 297.5t308.5 96.5q195 0 316.5 -93.5t121.5 -257.5v-172q0 -115 -125 -114h-618v-172q0 -121 72.5 -189.5t183.5 -68.5h442v-29q0 -31 -17.5 -45t-74.5 -14h-350q-172 0 -275.5 93t-103.5 253zM236 545h532q55 0 71.5 16.5t16.5 69.5v112 q0 121 -82 192t-233 71q-139 0 -222 -71t-83 -192v-198zM330 1247v146h133v-146h-133zM666 1247v146h131v-146h-131z" />
<glyph unicode="&#xec;" horiz-adv-x="417" d="M55 1481h131l164 -279h-24q-63 0 -97 45zM145 16v1049h123v-1126h-49q-41 0 -57.5 17t-16.5 60z" />
<glyph unicode="&#xed;" horiz-adv-x="417" d="M109 1202l165 279h129l-174 -234q-33 -45 -96 -45h-24zM145 16v1049h123v-1126h-49q-41 0 -57.5 17t-16.5 60z" />
<glyph unicode="&#xee;" horiz-adv-x="417" d="M-68 1196l209 256h127l209 -256h-106l-166 203l-166 -203h-107zM145 16v1049h123v-1126h-49q-41 0 -57.5 17t-16.5 60z" />
<glyph unicode="&#xef;" horiz-adv-x="417" d="M-25 1247v146h134v-146h-134zM145 16v1049h123v-1126h-49q-41 0 -57.5 17t-16.5 60zM311 1247v146h131v-146h-131z" />
<glyph unicode="&#xf0;" horiz-adv-x="1177" d="M125 315v289q0 190 111.5 293.5t330.5 103.5q145 0 235.5 -52t129.5 -118v150q0 276 -184 373l-269 -242l-71 72l231 207q-66 12 -129 12q-102 0 -225 -10q-41 -4 -41 37v51q115 14 268 14q111 0 213 -27l166 150l72 -68l-140 -123q117 -70 169 -182t52 -287v-643 q0 -201 -121.5 -304t-342.5 -99q-219 4 -337 105t-118 298zM240 344q0 -340 340 -340q190 0 271 79t81 259v242q0 150 -94.5 237.5t-266.5 87.5q-168 0 -249.5 -75.5t-81.5 -258.5v-231z" />
<glyph unicode="&#xf1;" horiz-adv-x="1136" d="M143 25v1040h484q205 0 285.5 -76t80.5 -264v-786h-41q-84 0 -84 86v700q0 147 -52 199.5t-189 52.5h-361v-1038h-39q-84 0 -84 86zM154 1214q8 86 70.5 140.5t146.5 54.5q78 0 178 -57q98 -49 151 -49q119 0 138 106h82q-4 -80 -65.5 -135t-145.5 -55q-92 0 -197 61 q-86 47 -139 47q-109 0 -135 -113h-84z" />
<glyph unicode="&#xf2;" horiz-adv-x="1146" d="M123 367v270q0 240 113.5 348.5t334.5 108.5q223 0 336 -107.5t113 -349.5v-270q0 -242 -110.5 -349.5t-338.5 -107.5q-223 0 -335.5 107.5t-112.5 349.5zM246 371q0 -197 81 -284t244.5 -87t244.5 85t81 286v262q0 193 -72.5 280.5t-253.5 87.5q-176 0 -250.5 -88 t-74.5 -280v-262zM383 1481h131l164 -279h-25q-63 0 -96 45z" />
<glyph unicode="&#xf3;" horiz-adv-x="1146" d="M123 367v270q0 240 113.5 348.5t334.5 108.5q223 0 336 -107.5t113 -349.5v-270q0 -242 -110.5 -349.5t-338.5 -107.5q-223 0 -335.5 107.5t-112.5 349.5zM246 371q0 -197 81 -284t244.5 -87t244.5 85t81 286v262q0 193 -72.5 280.5t-253.5 87.5q-176 0 -250.5 -88 t-74.5 -280v-262zM446 1202l166 279h129l-174 -234q-33 -45 -96 -45h-25z" />
<glyph unicode="&#xf4;" horiz-adv-x="1146" d="M123 367v270q0 240 113.5 348.5t334.5 108.5q223 0 336 -107.5t113 -349.5v-270q0 -242 -110.5 -349.5t-338.5 -107.5q-223 0 -335.5 107.5t-112.5 349.5zM246 371q0 -197 81 -284t244.5 -87t244.5 85t81 286v262q0 193 -72.5 280.5t-253.5 87.5q-176 0 -250.5 -88 t-74.5 -280v-262zM289 1196l209 256h127l209 -256h-107l-166 203l-166 -203h-106z" />
<glyph unicode="&#xf5;" horiz-adv-x="1146" d="M123 367v270q0 240 113.5 348.5t334.5 108.5q223 0 336 -107.5t113 -349.5v-270q0 -242 -110.5 -349.5t-338.5 -107.5q-223 0 -335.5 107.5t-112.5 349.5zM184 1214q8 86 70.5 140.5t146.5 54.5q78 0 179 -57q98 -49 151 -49q119 0 137 106h82q-4 -80 -65.5 -135 t-145.5 -55q-92 0 -196 61q-86 47 -140 47q-109 0 -135 -113h-84zM246 371q0 -197 81 -284t244.5 -87t244.5 85t81 286v262q0 193 -72.5 280.5t-253.5 87.5q-176 0 -250.5 -88t-74.5 -280v-262z" />
<glyph unicode="&#xf6;" horiz-adv-x="1146" d="M123 367v270q0 240 113.5 348.5t334.5 108.5q223 0 336 -107.5t113 -349.5v-270q0 -242 -110.5 -349.5t-338.5 -107.5q-223 0 -335.5 107.5t-112.5 349.5zM246 371q0 -197 81 -284t244.5 -87t244.5 85t81 286v262q0 193 -72.5 280.5t-253.5 87.5q-176 0 -250.5 -88 t-74.5 -280v-262zM342 1247v146h133v-146h-133zM678 1247v146h131v-146h-131z" />
<glyph unicode="&#xf7;" horiz-adv-x="1007" d="M59 698v88h887v-88h-887zM426 285v166h143v-166h-143zM426 1036v164h143v-164h-143z" />
<glyph unicode="&#xf8;" horiz-adv-x="1138" d="M123 346v311q0 436 448 437q98 0 174 -23l80 191h109l-96 -226q182 -102 182 -379v-311q0 -436 -449 -436q-92 0 -184 24l-82 -198h-104l96 237q-174 105 -174 373zM246 346q0 -170 94 -270l371 907q-72 23 -140 23q-154 0 -239.5 -90.5t-85.5 -258.5v-311zM424 20 q68 -25 147 -24q158 0 242 88t84 262v311q0 172 -100 273z" />
<glyph unicode="&#xf9;" horiz-adv-x="1114" d="M133 334v731h121v-731q0 -172 62.5 -239.5t218.5 -67.5h315v1038h123v-1126h-438q-213 0 -307.5 89t-94.5 306zM362 1481h132l163 -279h-24q-63 0 -96 45z" />
<glyph unicode="&#xfa;" horiz-adv-x="1114" d="M133 334v731h121v-731q0 -172 62.5 -239.5t218.5 -67.5h315v1038h123v-1126h-438q-213 0 -307.5 89t-94.5 306zM467 1202l166 279h129l-174 -234q-33 -45 -96 -45h-25z" />
<glyph unicode="&#xfb;" horiz-adv-x="1114" d="M133 334v731h121v-731q0 -172 62.5 -239.5t218.5 -67.5h315v1038h123v-1126h-438q-213 0 -307.5 89t-94.5 306zM289 1196l209 256h127l209 -256h-107l-166 203l-166 -203h-106z" />
<glyph unicode="&#xfc;" horiz-adv-x="1114" d="M133 334v731h121v-731q0 -172 62.5 -239.5t218.5 -67.5h315v1038h123v-1126h-438q-213 0 -307.5 89t-94.5 306zM334 1247v146h133v-146h-133zM670 1247v146h131v-146h-131z" />
<glyph unicode="&#xfd;" horiz-adv-x="1114" d="M131 285v780h123v-776q0 -137 48 -201.5t171 -60.5q231 4 377 22v1016h123v-1272q0 -127 -81 -204.5t-251 -77.5h-451v28q0 37 19.5 52.5t66.5 15.5h365q117 0 163 48t46 142v166q-199 -18 -389 -24q-168 -4 -249 86t-81 260zM469 1202l166 279h129l-174 -234 q-33 -45 -96 -45h-25z" />
<glyph unicode="&#xfe;" horiz-adv-x="1077" d="M154 -414v1891h118v-412h287q199 0 303.5 -88t104.5 -260v-432q0 -346 -408 -346h-287v-431h-49q-37 0 -53 17.5t-16 60.5zM272 27h287q133 0 210 70.5t77 209.5v389q0 137 -77 209t-208 72h-289v-950z" />
<glyph unicode="&#xff;" horiz-adv-x="1114" d="M131 285v780h123v-776q0 -137 48 -201.5t171 -60.5q231 4 377 22v1016h123v-1272q0 -127 -81 -204.5t-251 -77.5h-451v28q0 37 19.5 52.5t66.5 15.5h365q117 0 163 48t46 142v166q-199 -18 -389 -24q-168 -4 -249 86t-81 260zM336 1247v146h133v-146h-133zM672 1247v146 h131v-146h-131z" />
<glyph unicode="&#x152;" horiz-adv-x="1966" d="M123 555v293q0 647 588 647q127 0 229 -29h918v-16q0 -37 -14.5 -54.5t-57.5 -17.5h-719v-581h721v-23q0 -33 -14.5 -49t-57.5 -16h-649v-682h817v-21q0 -68 -69 -67h-877q-102 -29 -227 -29q-588 0 -588 645zM244 553q0 -545 467 -545q150 0 233 41v1294q-96 53 -233 54 q-229 0 -348 -150.5t-119 -398.5v-295z" />
<glyph unicode="&#x153;" horiz-adv-x="1830" d="M104 346v311q0 436 449 437q276 0 385 -168q104 168 369 168q195 0 316.5 -93.5t121.5 -257.5v-172q0 -115 -125 -114h-619v-172q0 -121 73 -189.5t183 -68.5h443v-29q0 -31 -17.5 -45t-74.5 -14h-351q-217 0 -317 141q-104 -170 -387 -170q-449 0 -449 436zM227 346 q0 -170 84 -260t242 -90t242 88t84 262v311q0 156 -80 252.5t-246 96.5q-154 0 -240 -90.5t-86 -258.5v-311zM1001 545h533q55 0 71.5 16.5t16.5 69.5v112q0 121 -82 192t-233 71q-139 0 -222.5 -71t-83.5 -192v-198z" />
<glyph unicode="&#x178;" horiz-adv-x="1280" d="M37 1466h125l473 -823l475 823h125l-541 -919v-608h-49q-37 0 -54.5 16t-17.5 57v535zM401 1657v145h134v-145h-134zM737 1657v145h131v-145h-131z" />
<glyph unicode="&#x2c6;" horiz-adv-x="888" d="M172 1196l209 256h127l209 -256h-107l-166 203l-165 -203h-107z" />
<glyph unicode="&#x2dc;" horiz-adv-x="614" d="M-383 122q8 86 70.5 140.5t146.5 54.5q78 0 178 -57q98 -49 151 -49q119 0 138 106h82q-4 -80 -65.5 -135t-145.5 -55q-92 0 -197 61q-86 47 -139 47q-109 0 -135 -113h-84z" />
<glyph unicode="&#x303;" horiz-adv-x="907" d="M68 1214q8 86 70.5 140.5t146.5 54.5q78 0 178 -57q98 -49 151 -49q119 0 138 106h82q-4 -80 -65.5 -135t-145.5 -55q-92 0 -197 61q-86 47 -139 47q-109 0 -135 -113h-84z" />
<glyph unicode="&#x2000;" horiz-adv-x="972" />
<glyph unicode="&#x2001;" horiz-adv-x="1947" />
<glyph unicode="&#x2002;" horiz-adv-x="972" />
<glyph unicode="&#x2003;" horiz-adv-x="1947" />
<glyph unicode="&#x2004;" horiz-adv-x="649" />
<glyph unicode="&#x2005;" horiz-adv-x="485" />
<glyph unicode="&#x2006;" horiz-adv-x="323" />
<glyph unicode="&#x2007;" horiz-adv-x="323" />
<glyph unicode="&#x2008;" horiz-adv-x="241" />
<glyph unicode="&#x2009;" horiz-adv-x="389" />
<glyph unicode="&#x200a;" horiz-adv-x="106" />
<glyph unicode="&#x2010;" horiz-adv-x="1112" d="M135 625v94h844v-94h-844z" />
<glyph unicode="&#x2011;" horiz-adv-x="1112" d="M135 625v94h844v-94h-844z" />
<glyph unicode="&#x2012;" horiz-adv-x="1112" d="M135 625v94h844v-94h-844z" />
<glyph unicode="&#x2013;" horiz-adv-x="1024" d="M135 625v94h756v-94h-756z" />
<glyph unicode="&#x2014;" horiz-adv-x="2048" d="M135 625v94h1780v-94h-1780z" />
<glyph unicode="&#x2018;" horiz-adv-x="661" d="M211 1106v205q0 211 178 293l41 -56q-106 -66 -106 -178v-72h118v-192h-231z" />
<glyph unicode="&#x2019;" horiz-adv-x="661" d="M209 1413v195h231v-207q0 -100 -47 -177t-131 -114l-41 53q106 66 107 180v70h-119z" />
<glyph unicode="&#x201c;" horiz-adv-x="1003" d="M199 1106v205q0 100 47 177t131 116l43 -56q-106 -66 -107 -178v-72h119v-192h-233zM590 1106v205q0 100 47 177t131 116l41 -56q-106 -66 -107 -178v-72h121v-192h-233z" />
<glyph unicode="&#x201d;" horiz-adv-x="1003" d="M201 1407v195h233v-207q0 -100 -47 -177t-131 -114l-41 53q106 68 107 178v72h-121zM592 1407v195h233v-207q0 -100 -47 -177t-131 -114l-43 53q106 66 107 178v72h-119z" />
<glyph unicode="&#x2022;" horiz-adv-x="1884" d="M717 614q0 90 66.5 157t158.5 67t158.5 -66.5t66.5 -157.5q0 -94 -66.5 -160.5t-158.5 -66.5t-158.5 66.5t-66.5 160.5z" />
<glyph unicode="&#x2026;" horiz-adv-x="1617" d="M193 668v163h147v-163h-147zM729 668v163h148v-163h-148zM1266 668v163h147v-163h-147z" />
<glyph unicode="&#x202f;" horiz-adv-x="389" />
<glyph unicode="&#x2039;" horiz-adv-x="1884" d="M330 614l1478 904v-76l-1335 -828l1335 -825v-80z" />
<glyph unicode="&#x203a;" horiz-adv-x="1884" d="M76 -211l1335 825l-1335 828v76l1478 -904l-1478 -905v80z" />
<glyph unicode="&#x205f;" horiz-adv-x="485" />
<glyph unicode="&#x20ac;" horiz-adv-x="1884" d="M266 422v86h307v385h-307v86h307v121q0 174 115 270t322 96h479v-22q0 -33 -18.5 -49.5t-73.5 -16.5h-381q-322 0 -322 -307v-92h414v-86h-414v-385h414v-86h-414v-94q0 -127 72 -214t203 -87h542v-23q0 -66 -96 -65h-454q-172 0 -280 101t-108 273v109h-307z" />
<glyph unicode="&#x2122;" horiz-adv-x="1884" d="M57 1372v94h721v-26q0 -39 -14 -53.5t-62 -14.5h-225v-721h-45q-78 0 -78 82v639h-297zM940 731v735h123l301 -487q25 -37 45 -2l301 489h121v-815h-43q-37 0 -57.5 23.5t-20.5 62.5v529l-227 -348q-41 -61 -97 -62q-51 0 -92 62l-233 348v-615h-47q-33 0 -53.5 24.5 t-20.5 55.5z" />
<glyph unicode="&#xe000;" horiz-adv-x="1065" d="M0 1065h1065v-1065h-1065v1065z" />
<glyph unicode="&#xfb01;" horiz-adv-x="1288" d="M1002 1358v119h131v-211h-29q-45 0 -73.5 24.5t-28.5 67.5zM1006 25v1040h123v-1126h-43q-80 0 -80 86zM57 977v88h238v154q0 129 56.5 193.5t203.5 64.5h236v-17q0 -74 -95 -74h-141q-137 0 -137 -151v-170h327v-37q0 -51 -83 -51h-244v-1038h-51q-41 0 -56.5 16 t-15.5 61v961h-238z" />
<glyph unicode="&#xfb02;" horiz-adv-x="1292" d="M1004 23v1454h120v-1538h-36q-84 0 -84 84zM57 977v88h238v154q0 129 56.5 193.5t203.5 64.5h236v-17q0 -74 -95 -74h-141q-137 0 -137 -151v-170h327v-37q0 -51 -83 -51h-244v-1038h-51q-41 0 -56.5 16t-15.5 61v961h-238z" />
<glyph unicode="&#xfb03;" horiz-adv-x="2138" d="M1852 1358v119h131v-211h-29q-45 0 -73.5 24.5t-28.5 67.5zM1856 25v1040h123v-1126h-43q-80 0 -80 86zM907 977v88h238v154q0 129 56.5 193.5t203.5 64.5h236v-17q0 -74 -95 -74h-141q-137 0 -137 -151v-170h327v-37q0 -51 -83 -51h-244v-1038h-51q-41 0 -56.5 16 t-15.5 61v961h-238zM57 977v88h238v154q0 129 56.5 193.5t203.5 64.5h236v-17q0 -74 -95 -74h-141q-137 0 -137 -151v-170h327v-37q0 -51 -83 -51h-244v-1038h-51q-41 0 -56.5 16t-15.5 61v961h-238z" />
<glyph unicode="&#xfb04;" horiz-adv-x="2142" d="M1854 23v1454h120v-1538h-36q-84 0 -84 84zM907 977v88h238v154q0 129 56.5 193.5t203.5 64.5h236v-17q0 -74 -95 -74h-141q-137 0 -137 -151v-170h327v-37q0 -51 -83 -51h-244v-1038h-51q-41 0 -56.5 16t-15.5 61v961h-238zM57 977v88h238v154q0 129 56.5 193.5 t203.5 64.5h236v-17q0 -74 -95 -74h-141q-137 0 -137 -151v-170h327v-37q0 -51 -83 -51h-244v-1038h-51q-41 0 -56.5 16t-15.5 61v961h-238z" />
</font>
</defs>
</svg>
