<?xml version="1.0" standalone="no"?>
<!DOCTYPE svg PUBLIC "-//W3C//DTD SVG 1.1//EN" "http://www.w3.org/Graphics/SVG/1.1/DTD/svg11.dtd" >
<svg xmlns="http://www.w3.org/2000/svg">
<metadata></metadata>
<defs>
<font id="hyundai_sans_headmedium" horiz-adv-x="1228" >
<font-face units-per-em="2048" ascent="1536" descent="-512" />
<missing-glyph horiz-adv-x="440" />
<glyph horiz-adv-x="0" />
<glyph horiz-adv-x="682" />
<glyph unicode="&#xd;" horiz-adv-x="440" />
<glyph unicode=" "  horiz-adv-x="440" />
<glyph unicode="&#x09;" horiz-adv-x="440" />
<glyph unicode="&#xa0;" horiz-adv-x="440" />
<glyph unicode="!" horiz-adv-x="534" d="M109 0v313h315v-313h-315zM133 1393h268l-51 -922h-164z" />
<glyph unicode="&#x22;" horiz-adv-x="827" d="M88 1393h262l-47 -580h-166zM475 1393h262l-47 -580h-166z" />
<glyph unicode="#" horiz-adv-x="1357" d="M61 330v198h207l82 338h-157v199h206l80 328h213l-80 -328h297l80 328h213l-80 -328h176v-199h-223l-82 -338h174v-198h-221l-80 -330h-217l80 330h-293l-80 -330h-217l80 330h-158zM483 528h295l82 338h-295z" />
<glyph unicode="$" d="M33 287l174 170q129 -201 332 -238v387q-184 30 -293 132.5t-109 258.5q0 155 102 268.5t279 145.5v197h260v-201q229 -47 355 -211l-170 -176q-83 101 -203 141v-323q196 -39 302.5 -144t106.5 -270q0 -168 -105.5 -285.5t-285.5 -152.5v-213h-260v207q-308 38 -485 307 zM414 1024q0 -107 125 -147v290q-59 -18 -92 -57t-33 -86zM760 229q65 24 100 71t35 106q0 113 -135 159v-336z" />
<glyph unicode="%" horiz-adv-x="1740" d="M55 1049q0 155 105.5 259.5t263.5 104.5q159 0 264 -104t105 -260t-105 -260.5t-264 -104.5q-158 0 -263.5 104.5t-105.5 260.5zM252 1049q0 -74 48.5 -125.5t123.5 -51.5t124.5 52t49.5 125t-49.5 124.5t-124.5 51.5t-123.5 -51.5t-48.5 -124.5zM403 0l723 1393h205 l-721 -1393h-207zM948 340q0 156 105.5 260.5t263.5 104.5q159 0 264 -104.5t105 -260.5t-105 -260.5t-264 -104.5q-158 0 -263.5 104.5t-105.5 260.5zM1145 340q0 -73 48.5 -124.5t123.5 -51.5t124.5 51.5t49.5 124.5q0 75 -49.5 126.5t-124.5 51.5t-123.5 -51.5 t-48.5 -126.5z" />
<glyph unicode="&#x26;" horiz-adv-x="1433" d="M49 375q0 152 84.5 250t247.5 161q-100 131 -100 265q0 149 114.5 259.5t292.5 110.5q173 0 285 -100.5t112 -247.5q0 -253 -317 -362l205 -222l254 281l166 -149l-271 -297l293 -318v-6h-336l-131 145q-205 -174 -434 -174q-211 0 -338 114.5t-127 289.5zM305 395 q0 -87 61 -141.5t156 -54.5q151 0 279 112l-285 318q-100 -39 -155.5 -94t-55.5 -140zM528 1053q0 -44 23 -84t78 -103q110 36 158.5 84.5t48.5 114.5q0 53 -41.5 95t-108.5 42q-73 0 -115.5 -45.5t-42.5 -103.5z" />
<glyph unicode="'" horiz-adv-x="440" d="M88 1393h262l-47 -580h-166z" />
<glyph unicode="(" horiz-adv-x="665" d="M70 535q0 142 28.5 270.5t73 223t107.5 177.5t123 137.5t128 100.5l119 -139q-80 -72 -136.5 -142t-103.5 -161.5t-70.5 -208t-23.5 -258.5t23.5 -258.5t70.5 -208.5t103.5 -162t136.5 -142l-119 -139q-68 45 -128 100t-123 138t-107.5 178t-73 223.5t-28.5 270.5z" />
<glyph unicode=")" horiz-adv-x="663" d="M16 -236q80 72 136.5 142t103.5 162t70.5 208.5t23.5 258.5t-23.5 258.5t-70.5 208t-103.5 161.5t-136.5 142l119 139q68 -46 128 -100.5t123 -137.5t108 -177.5t73.5 -223t28.5 -270.5t-28.5 -270.5t-73.5 -223.5t-108 -178t-123 -137.5t-128 -100.5z" />
<glyph unicode="*" horiz-adv-x="901" d="M63 1028l52 186l250 -90l-17 269h203l-14 -269l247 90l52 -186l-248 -65l166 -203l-158 -113l-145 227l-148 -227l-158 113l166 203z" />
<glyph unicode="+" d="M125 506v229h375v375h229v-375h375v-229h-375v-375h-229v375h-375z" />
<glyph unicode="," horiz-adv-x="532" d="M109 0v313h315v-276l-141 -340h-154l123 303h-143z" />
<glyph unicode="-" horiz-adv-x="817" d="M111 516v209h598v-209h-598z" />
<glyph unicode="." horiz-adv-x="532" d="M109 0v313h315v-313h-315z" />
<glyph unicode="/" horiz-adv-x="956" d="M47 0l623 1393h239l-624 -1393h-238z" />
<glyph unicode="0" horiz-adv-x="1343" d="M86 696q0 333 154 529t432 196t431.5 -196t153.5 -529t-153.5 -529t-431.5 -196t-432 196t-154 529zM352 696q0 -224 78 -353.5t242 -129.5t241.5 129t77.5 354t-77.5 354.5t-241.5 129.5t-242 -129.5t-78 -354.5z" />
<glyph unicode="1" horiz-adv-x="763" d="M0 1159l416 234h194v-1393h-260v1096l-254 -140z" />
<glyph unicode="2" horiz-adv-x="1132" d="M70 0v199q35 66 92.5 130.5t121 116t132.5 102.5t130.5 98.5t111.5 95t79 102t29 110.5q0 98 -59 162t-183 64q-186 0 -248 -187l-200 111q20 58 55 110.5t89.5 101t136 77t180.5 28.5q228 0 358.5 -127t130.5 -323q0 -84 -27 -160t-72.5 -134.5t-100.5 -110t-117 -96 t-117 -82.5t-104 -79t-74 -76h639v-233h-983z" />
<glyph unicode="3" horiz-adv-x="1173" d="M29 205l151 180q147 -172 352 -172q132 0 214.5 55t82.5 152q0 188 -292 188h-138v230h138q108 0 163.5 49.5t55.5 124.5q0 80 -60.5 124t-152.5 44q-192 0 -291 -142l-156 164q73 95 189.5 157t257.5 62q225 0 352 -103.5t127 -287.5q0 -85 -47.5 -161t-130.5 -126 q121 -39 186.5 -130.5t65.5 -215.5q0 -128 -75.5 -226t-203 -149t-285.5 -51q-88 0 -169 21.5t-143.5 58t-107.5 74t-83 80.5z" />
<glyph unicode="4" horiz-adv-x="1284" d="M31 348v191l639 854h338v-813h231v-232h-231v-348h-258v348h-719zM354 580h396v540z" />
<glyph unicode="5" horiz-adv-x="1165" d="M31 205l151 180q147 -172 353 -172q131 0 213.5 68.5t82.5 185.5q0 108 -73.5 173t-190.5 65q-141 0 -256 -82l-164 55l66 715h807v-234h-580l-28 -241q93 28 174 28q85 0 161 -18.5t140.5 -57.5t111 -95t73 -135t26.5 -173q0 -230 -154.5 -363t-408.5 -133 q-88 0 -169 21.5t-143.5 58t-108 74t-83.5 80.5z" />
<glyph unicode="6" horiz-adv-x="1288" d="M84 662q0 354 172 556.5t467 202.5q158 0 280 -66.5t193 -172.5l-178 -160q-46 71 -123.5 114.5t-171.5 43.5q-150 0 -249.5 -99.5t-119.5 -283.5q143 157 363 157q131 0 241.5 -59t178 -171.5t67.5 -254.5q0 -143 -73 -258t-196 -177.5t-271 -62.5q-186 0 -318.5 90.5 t-197 244.5t-64.5 356zM393 463q0 -105 74.5 -177.5t196.5 -72.5q124 0 198 72.5t74 177.5q0 106 -74 179t-198 73q-122 0 -196.5 -73t-74.5 -179z" />
<glyph unicode="7" horiz-adv-x="1042" d="M33 1159v234h985v-189l-559 -1204h-293v6l553 1153h-686z" />
<glyph unicode="8" horiz-adv-x="1288" d="M76 395q0 125 70 221.5t188 133.5q-180 91 -180 292q0 162 128 270.5t361 108.5t361.5 -108.5t128.5 -270.5q0 -201 -181 -292q118 -37 188 -133.5t70 -221.5q0 -189 -147 -306.5t-420 -117.5t-420 117.5t-147 306.5zM342 418q0 -90 77 -149.5t224 -59.5t224 59.5 t77 149.5t-77 149.5t-224 59.5t-224 -59.5t-77 -149.5zM420 1020q0 -74 62 -119t161 -45t161 45t62 119t-62 119t-161 45t-161 -45t-62 -119z" />
<glyph unicode="9" horiz-adv-x="1288" d="M84 924q0 143 73 257.5t196.5 177t271.5 62.5q140 0 251 -51.5t182 -144t108.5 -218t37.5 -276.5q0 -354 -172 -557t-467 -203q-158 0 -280 67t-193 173l178 160q46 -71 123.5 -114.5t171.5 -43.5q150 0 248.5 99t118.5 284q-144 -158 -361 -158q-131 0 -242 59.5 t-178 172t-67 254.5zM352 930q0 -106 74.5 -179t198.5 -73q122 0 196 73t74 179q0 105 -74 177.5t-196 72.5q-124 0 -198.5 -72.5t-74.5 -177.5z" />
<glyph unicode=":" horiz-adv-x="526" d="M111 0v305h307v-305h-307zM111 750v305h307v-305h-307z" />
<glyph unicode=";" horiz-adv-x="528" d="M111 0v303h305v-268l-137 -328h-150l121 293h-139zM111 750v305h307v-305h-307z" />
<glyph unicode="&#x3c;" d="M98 508v225l981 381v-231l-712 -262l712 -263v-231z" />
<glyph unicode="=" d="M125 260v229h981v-229h-981zM125 750v229h981v-229h-981z" />
<glyph unicode="&#x3e;" d="M150 127v231l710 263l-710 262v231l980 -381v-225z" />
<glyph unicode="?" horiz-adv-x="958" d="M53 1112q18 63 51.5 117t83.5 98t122.5 69t160.5 25q184 0 301 -108.5t117 -270.5q0 -115 -48.5 -191.5t-129.5 -137.5l-93 -68q-47 -35 -66.5 -68.5t-19.5 -84.5v-21h-225q-16 50 -16 88q0 75 32.5 131.5t106.5 110.5l92 67q107 82 107 158q0 67 -48.5 110.5 t-125.5 43.5t-127 -43t-68 -119zM266 0v313h316v-313h-316z" />
<glyph unicode="@" horiz-adv-x="1980" d="M72 541q0 202 69 375t191 294.5t293.5 190.5t371.5 69q195 0 363 -62.5t286 -171.5t185 -260.5t67 -324.5q0 -139 -38.5 -252.5t-100 -183t-135 -106.5t-147.5 -37q-104 0 -172 38t-95 105q-47 -63 -125 -102t-174 -39q-178 0 -295.5 128.5t-117.5 327.5 q0 200 117.5 330.5t291.5 130.5q79 0 145 -29.5t107 -78.5v94h244v-561q0 -117 82 -117q73 0 130.5 89t57.5 253q0 134 -48.5 249.5t-135.5 198.5t-214 130t-278 47q-205 0 -365 -91.5t-247.5 -256.5t-87.5 -377q0 -316 194 -507.5t506 -191.5q188 0 334 76l84 -186 q-190 -94 -418 -94q-196 0 -366 64.5t-293.5 180.5t-194.5 286t-71 372zM754 532q0 -106 59.5 -169.5t151.5 -63.5q64 0 115.5 31.5t76.5 85.5v233q-25 54 -76.5 85.5t-115.5 31.5q-92 0 -151.5 -64t-59.5 -170z" />
<glyph unicode="A" horiz-adv-x="1394" d="M-2 0l543 1393h313l543 -1393h-277l-112 295h-621l-113 -295h-276zM475 526h443l-222 582z" />
<glyph unicode="B" horiz-adv-x="1347" d="M152 0v1393h575q212 0 333.5 -98.5t121.5 -272.5q0 -86 -41.5 -159t-118.5 -120q123 -39 193.5 -125t70.5 -221q0 -190 -129 -293.5t-371 -103.5h-634zM418 221h358q236 0 236 189q0 188 -236 188h-358v-377zM418 819h274q215 0 215 176t-215 176h-274v-352z" />
<glyph unicode="C" horiz-adv-x="1447" d="M72 696q0 206 90.5 371.5t252.5 259.5t365 94q211 0 371 -91t254 -251l-199 -147q-145 242 -420 242q-132 0 -233 -63.5t-154 -171.5t-53 -243q0 -207 120.5 -342t319.5 -135q275 0 420 242l199 -148q-94 -160 -254 -251t-371 -91q-203 0 -365 94t-252.5 259.5 t-90.5 371.5z" />
<glyph unicode="D" horiz-adv-x="1482" d="M152 0v1393h563q202 0 357 -79t245 -238.5t90 -379.5q0 -166 -51.5 -298.5t-144 -219t-219 -132.5t-277.5 -46h-563zM418 231h282q201 0 317 120.5t116 344.5t-116 344.5t-317 120.5h-282v-930z" />
<glyph unicode="E" horiz-adv-x="1216" d="M152 0v1393h978v-234h-712v-340h614v-231h-614v-355h712v-233h-978z" />
<glyph unicode="F" horiz-adv-x="1169" d="M152 0v1393h958v-234h-692v-348h614v-233h-614v-578h-266z" />
<glyph unicode="G" horiz-adv-x="1501" d="M72 696q0 206 91.5 371.5t255 259.5t367.5 94q209 0 367.5 -87.5t253.5 -243.5l-199 -150q-144 234 -417 234q-198 0 -321.5 -136t-123.5 -342q0 -135 55 -243t157.5 -171t234.5 -63q99 0 192 25.5t152 68.5v238h-314v231h580v-606q-109 -87 -279 -146t-338 -59 q-204 0 -367.5 94t-255 259.5t-91.5 371.5z" />
<glyph unicode="H" horiz-adv-x="1525" d="M152 0v1393h266v-574h690v574h266v-1393h-266v588h-690v-588h-266z" />
<glyph unicode="I" horiz-adv-x="569" d="M152 0v1393h266v-1393h-266z" />
<glyph unicode="J" horiz-adv-x="1110" d="M-2 240l197 149q100 -170 249 -170q263 0 263 318v856h266v-865q0 -255 -132.5 -406t-389.5 -151q-156 0 -272.5 75.5t-180.5 193.5z" />
<glyph unicode="K" horiz-adv-x="1320" d="M152 0v1393h266v-654l563 654h322v-7l-517 -583l545 -797v-6h-311l-410 602l-192 -217v-385h-266z" />
<glyph unicode="L" horiz-adv-x="1122" d="M152 0v1393h266v-1160h674v-233h-940z" />
<glyph unicode="M" horiz-adv-x="1845" d="M152 0v1393h356l414 -1051l415 1051h357v-1393h-267v985l-385 -985h-239l-385 985v-985h-266z" />
<glyph unicode="N" horiz-adv-x="1560" d="M152 0v1393h233l758 -951v951h266v-1393h-231l-760 950v-950h-266z" />
<glyph unicode="O" horiz-adv-x="1560" d="M72 696q0 206 90.5 371.5t252.5 259.5t365 94q152 0 284 -55t225.5 -151t146.5 -230.5t53 -288.5t-53 -288.5t-146.5 -230.5t-225.5 -151t-284 -55q-203 0 -365 94t-252.5 259.5t-90.5 371.5zM346 696q0 -207 118.5 -342t315.5 -135t315.5 135t118.5 342t-118.5 342.5 t-315.5 135.5t-315.5 -135.5t-118.5 -342.5z" />
<glyph unicode="P" horiz-adv-x="1247" d="M152 0v1393h548q229 0 363.5 -110.5t134.5 -326.5t-134 -326t-364 -110h-282v-520h-266zM418 754h250q125 0 190.5 47t65.5 155t-65.5 155.5t-190.5 47.5h-250v-405z" />
<glyph unicode="Q" horiz-adv-x="1562" d="M72 696q0 206 90.5 371.5t252.5 259.5t365 94q153 0 285 -55t225 -151t146 -230.5t53 -288.5q0 -173 -64.5 -319t-181.5 -244l238 -321l-215 -142l-244 340q-119 -39 -242 -39q-203 0 -365 94t-252.5 259.5t-90.5 371.5zM346 696q0 -207 118.5 -342t315.5 -135t315.5 135 t118.5 342t-118.5 342.5t-315.5 135.5t-315.5 -135.5t-118.5 -342.5z" />
<glyph unicode="R" horiz-adv-x="1368" d="M152 0v1393h618q204 0 332.5 -112.5t128.5 -303.5q0 -151 -82 -254t-223 -141l450 -576v-6h-319l-418 563h-221v-563h-266zM418 795h323q105 0 160 47.5t55 134.5t-55 134.5t-160 47.5h-323v-364z" />
<glyph unicode="S" horiz-adv-x="1230" d="M27 287l174 170q69 -108 174.5 -177t251.5 -69q125 0 193.5 55t68.5 140q0 146 -225 180l-121 18q-188 28 -300 131.5t-112 261.5q0 182 138 303t366 121q156 0 284.5 -61.5t206.5 -163.5l-170 -176q-64 79 -148.5 120.5t-178.5 41.5q-101 0 -161 -46t-60 -112 q0 -63 46.5 -105t135.5 -55l119 -18q218 -33 336 -140t118 -282q0 -201 -149.5 -327t-390.5 -126q-390 0 -596 316z" />
<glyph unicode="T" horiz-adv-x="1175" d="M31 1159v234h1114v-234h-424v-1159h-266v1159h-424z" />
<glyph unicode="U" horiz-adv-x="1449" d="M135 594v799h266v-781q0 -186 79.5 -289.5t246.5 -103.5q166 0 245 103.5t79 289.5v781h266v-799q0 -136 -37.5 -249t-109.5 -196.5t-185.5 -130.5t-257.5 -47q-145 0 -258.5 47t-186 130.5t-110 196.5t-37.5 249z" />
<glyph unicode="V" horiz-adv-x="1370" d="M0 1393h276l408 -1098l408 1098h276l-528 -1393h-312z" />
<glyph unicode="W" horiz-adv-x="2060" d="M8 1393h268l289 -1039l318 1039h295l317 -1039l289 1039h268l-401 -1393h-297l-324 1030l-323 -1030h-295z" />
<glyph unicode="X" horiz-adv-x="1347" d="M-18 0v6l516 727l-459 653v7h317l318 -463l317 463h318v-7l-459 -653l516 -727v-6h-317l-375 537l-375 -537h-317z" />
<glyph unicode="Y" horiz-adv-x="1314" d="M2 1386v7h311l344 -549l344 549h312v-7l-522 -804v-582h-267v582z" />
<glyph unicode="Z" horiz-adv-x="1183" d="M55 0v199l697 960h-664v234h1016v-199l-701 -961h715v-233h-1063z" />
<glyph unicode="[" horiz-adv-x="645" d="M141 -340v1733h455v-195h-238v-1343h238v-195h-455z" />
<glyph unicode="\" horiz-adv-x="956" d="M47 1393h238l624 -1393h-239z" />
<glyph unicode="]" horiz-adv-x="645" d="M49 -145h238v1343h-238v195h455v-1733h-455v195z" />
<glyph unicode="^" d="M125 762v6l391 625h197l391 -625v-6h-240l-252 407l-247 -407h-240z" />
<glyph unicode="_" horiz-adv-x="1024" d="M0 -82h1024v-197h-1024v197z" />
<glyph unicode="`" d="M446 1505v6h261l157 -309v-6h-231z" />
<glyph unicode="a" horiz-adv-x="1288" d="M66 526q0 248 142.5 400.5t364.5 152.5q100 0 184.5 -39.5t145.5 -107.5v123h260v-1055h-260v121q-60 -68 -145 -107t-185 -39q-222 0 -364.5 151.5t-142.5 399.5zM330 526q0 -148 85 -233.5t216 -85.5q89 0 163 42.5t109 115.5v323q-35 74 -109 117t-163 43 q-131 0 -216 -86t-85 -236z" />
<glyph unicode="b" horiz-adv-x="1288" d="M125 0v1454h260v-522q59 68 144 107.5t186 39.5q222 0 365 -152.5t143 -400.5t-143 -399.5t-365 -151.5q-101 0 -186 39t-144 107v-121h-260zM385 365q35 -73 109 -115.5t163 -42.5q131 0 216 85.5t85 233.5q0 150 -85 236t-216 86q-89 0 -163 -43t-109 -117v-323z" />
<glyph unicode="c" horiz-adv-x="1126" d="M63 526q0 109 37 208.5t105.5 176.5t174 122.5t232.5 45.5q306 0 469 -262l-184 -141q-98 172 -270 172q-136 0 -217.5 -87.5t-81.5 -234.5q0 -146 82 -232.5t217 -86.5q172 0 270 172l184 -141q-164 -263 -469 -263q-127 0 -232.5 45.5t-174 122.5t-105.5 176t-37 207z " />
<glyph unicode="d" horiz-adv-x="1288" d="M66 526q0 248 142.5 400.5t364.5 152.5q100 0 184.5 -39.5t145.5 -107.5v522h260v-1454h-260v121q-60 -68 -145 -107t-185 -39q-222 0 -364.5 151.5t-142.5 399.5zM330 526q0 -148 85 -233.5t216 -85.5q89 0 163 42.5t109 115.5v323q-35 74 -109 117t-163 43 q-131 0 -216 -86t-85 -236z" />
<glyph unicode="e" horiz-adv-x="1165" d="M66 524q0 246 149 400.5t381 154.5q229 0 368.5 -143.5t139.5 -372.5q0 -41 -12 -127h-764q21 -110 98 -173.5t209 -63.5q92 0 171 44t128 111l143 -170q-79 -96 -195 -153.5t-259 -57.5q-167 0 -295 74t-195 198.5t-67 278.5zM332 649h514q-10 102 -76.5 158.5 t-173.5 56.5q-101 0 -169.5 -55.5t-94.5 -159.5z" />
<glyph unicode="f" horiz-adv-x="708" d="M47 846v209h164v61q0 159 95 258t274 99q54 0 98 -7v-211h-45q-162 0 -162 -141v-59h207v-209h-207v-846h-260v846h-164z" />
<glyph unicode="g" horiz-adv-x="1245" d="M66 575q0 228 130.5 366t350.5 138q195 0 319 -147v123h260v-875q0 -139 -46 -248t-124 -175.5t-175.5 -101t-207.5 -34.5q-339 0 -487 213l158 164q57 -75 131 -114.5t186 -39.5q60 0 112.5 17.5t96.5 54t70 99t26 145.5v57q-125 -145 -319 -145q-220 0 -350.5 137.5 t-130.5 365.5zM330 575q0 -127 76 -203.5t204 -76.5q86 0 153.5 40t102.5 111v256q-35 72 -102.5 113t-153.5 41q-128 0 -204 -77t-76 -204z" />
<glyph unicode="h" d="M123 0v1454h260v-547q46 76 132 124t202 48q199 0 300 -123.5t101 -334.5v-621h-260v592q0 126 -59 191t-174 65q-96 0 -159 -56t-83 -128v-664h-260z" />
<glyph unicode="i" horiz-adv-x="507" d="M119 1233v270h266v-270h-266zM123 0v1055h260v-1055h-260z" />
<glyph unicode="j" horiz-adv-x="505" d="M-41 -207q85 66 124.5 133t39.5 178v951h260v-959q0 -125 -37.5 -221.5t-94.5 -155t-140 -106.5zM117 1233v270h266v-270h-266z" />
<glyph unicode="k" horiz-adv-x="1110" d="M123 0v1454h260v-848l408 449h296v-8l-401 -443l447 -598v-6h-308l-303 424l-139 -154v-270h-260z" />
<glyph unicode="l" horiz-adv-x="507" d="M123 0v1454h260v-1454h-260z" />
<glyph unicode="m" horiz-adv-x="1931" d="M123 0v1055h260v-148q47 77 128.5 124.5t197.5 47.5q251 0 342 -200q123 200 376 200q198 0 296 -123t98 -335v-621h-260v592q0 256 -226 256q-92 0 -151.5 -52.5t-81.5 -131.5v-664h-260v592q0 256 -226 256q-91 0 -151 -52.5t-82 -131.5v-664h-260z" />
<glyph unicode="n" d="M123 0v1055h260v-148q46 76 132 124t202 48q199 0 300 -123.5t101 -334.5v-621h-260v592q0 126 -59 191t-174 65q-92 0 -156 -53.5t-86 -130.5v-664h-260z" />
<glyph unicode="o" horiz-adv-x="1245" d="M63 526q0 110 36.5 208.5t105 176t177 123t241.5 45.5t241.5 -45.5t176.5 -123t104.5 -176t36.5 -208.5q0 -111 -36.5 -210t-104.5 -176.5t-176.5 -123t-241.5 -45.5t-241.5 45.5t-177 123t-105 176.5t-36.5 210zM328 526q0 -146 83 -234.5t212 -88.5t212 88.5t83 234.5 q0 145 -83 233.5t-212 88.5t-212 -88.5t-83 -233.5z" />
<glyph unicode="p" horiz-adv-x="1286" d="M123 -354v1409h260v-125q59 69 145 109t187 40q221 0 363.5 -152.5t142.5 -400.5q0 -247 -142.5 -399t-363.5 -152q-101 0 -187 40t-145 108v-477h-260zM383 365q35 -73 109 -115.5t163 -42.5q131 0 216 85.5t85 233.5q0 150 -85 236t-216 86q-89 0 -163 -43t-109 -117 v-323z" />
<glyph unicode="q" horiz-adv-x="1286" d="M66 526q0 248 141.5 400.5t363.5 152.5q101 0 186 -40t146 -109v125h260v-1409h-260v477q-61 -69 -146 -108.5t-186 -39.5q-222 0 -363.5 151.5t-141.5 399.5zM330 526q0 -148 85 -233.5t216 -85.5q89 0 163 42.5t109 115.5v323q-35 74 -109 117t-163 43q-131 0 -216 -86 t-85 -236z" />
<glyph unicode="r" horiz-adv-x="739" d="M123 0v1055h260v-164q47 88 124.5 138t178.5 50h31v-248q-129 -2 -213.5 -47.5t-120.5 -156.5v-627h-260z" />
<glyph unicode="s" horiz-adv-x="997" d="M33 178l141 164q56 -68 139.5 -113t173.5 -45q86 0 139.5 33t53.5 90q0 50 -41.5 76t-122.5 39l-94 14q-150 25 -233 106t-83 208q0 141 113.5 235t306.5 94q119 0 214 -43.5t157 -115.5l-137 -166q-106 112 -244 112q-71 0 -110 -28.5t-39 -73.5q0 -76 116 -94l95 -15 q362 -55 362 -333q0 -149 -124 -250t-339 -101q-140 0 -253 57t-191 150z" />
<glyph unicode="t" horiz-adv-x="755" d="M25 846v209h184v268h252v-268h244v-209h-244v-455q0 -99 46.5 -140.5t147.5 -41.5h50v-209q-53 -12 -117 -12q-195 0 -291 100.5t-96 314.5v443h-176z" />
<glyph unicode="u" d="M111 434v621h260v-592q0 -126 59 -191t174 -65q92 0 156 53.5t86 130.5v664h260v-1055h-260v147q-46 -76 -132 -124t-202 -48q-199 0 -300 124t-101 335z" />
<glyph unicode="v" horiz-adv-x="1134" d="M8 1055h279l280 -733l281 733h278l-430 -1055h-260z" />
<glyph unicode="w" horiz-adv-x="1753" d="M10 1055h279l211 -705l239 705h277l239 -705l211 705h279l-346 -1055h-260l-262 733l-261 -733h-260z" />
<glyph unicode="x" horiz-adv-x="1103" d="M2 0v6l375 535l-344 506v8h289l231 -346l231 346h289v-8l-344 -506l375 -535v-6h-293l-258 379l-258 -379h-293z" />
<glyph unicode="y" horiz-adv-x="1110" d="M8 1055h279l280 -631l260 631h281l-619 -1409h-280l221 489z" />
<glyph unicode="z" horiz-adv-x="999" d="M49 0v186l547 660h-510v209h842v-187l-543 -659h555v-209h-891z" />
<glyph unicode="{" horiz-adv-x="710" d="M23 428v197h104q51 0 82 28.5t31 77.5v340q0 160 89 244t246 84q61 0 99 -6v-195h-68q-73 0 -111 -35t-38 -121v-305q0 -180 -148 -211q148 -31 148 -211v-305q0 -86 38 -120.5t111 -34.5h68v-195q-37 -6 -99 -6q-157 0 -246 84t-89 244v340q0 49 -31 77.5t-82 28.5h-104 z" />
<glyph unicode="|" horiz-adv-x="491" d="M139 -340v1794h213v-1794h-213z" />
<glyph unicode="}" horiz-adv-x="710" d="M53 -145h68q73 0 111 34.5t38 120.5v305q0 180 148 211q-148 31 -148 211v305q0 86 -38 121t-111 35h-68v195q38 6 99 6q157 0 246 -84t89 -244v-340q0 -49 31 -77.5t82 -28.5h105v-197h-105q-51 0 -82 -28.5t-31 -77.5v-340q0 -160 -89 -244t-246 -84q-62 0 -99 6v195z " />
<glyph unicode="~" d="M127 467v225q125 84 252 84q92 0 249 -48t220 -48q114 0 254 86h6v-225q-123 -86 -252 -86q-72 0 -161 24.5t-171 49t-137 24.5q-114 0 -254 -86h-6z" />
<glyph unicode="&#xa1;" horiz-adv-x="512" d="M98 741v314h316v-314h-316zM121 -338l51 922h164l53 -922h-268z" />
<glyph unicode="&#xa2;" d="M113 696q0 127 47.5 238t143.5 192t226 109v199h250v-197q220 -42 350 -250l-184 -141q-70 121 -178 158v-613q106 34 178 158l184 -141q-127 -207 -350 -252v-197h-250v201q-130 28 -226 108.5t-143.5 190.5t-47.5 237zM377 696q0 -105 43.5 -181t122.5 -112v586 q-79 -36 -122.5 -112t-43.5 -181z" />
<glyph unicode="&#xa3;" d="M129 553v223h119q-29 103 -29 205q0 193 128 316.5t339 123.5q283 0 432 -276l-192 -146q-49 88 -106.5 131.5t-133.5 43.5q-86 0 -143.5 -57.5t-57.5 -151.5q0 -79 35 -179h412v-225h-346q4 -36 4 -57q0 -148 -111 -271h602v-233h-901v199q40 44 60 69.5t42 64t31 79.5 t9 94q0 7 -5 47h-188z" />
<glyph unicode="&#xa4;" d="M113 266l137 137q-53 92 -53 215q0 121 53 213l-137 140l151 149l139 -139q93 49 211 49q115 0 211 -49l140 139l151 -149l-139 -140q55 -96 55 -213q0 -119 -55 -215l139 -137l-151 -149l-140 139q-91 -49 -211 -49q-123 0 -211 49l-139 -139zM420 618q0 -89 54 -145.5 t140 -56.5t141.5 56.5t55.5 145.5t-55.5 146t-141.5 57t-140 -57t-54 -146z" />
<glyph unicode="&#xa5;" d="M35 1386v7h305l274 -478l277 478h305v-7l-391 -632h239v-219h-296v-123h296v-219h-296v-193h-267v193h-295v219h295v123h-295v219h238z" />
<glyph unicode="&#xa6;" horiz-adv-x="487" d="M137 -340v741h213v-741h-213zM137 715v739h213v-739h-213z" />
<glyph unicode="&#xa7;" horiz-adv-x="1165" d="M78 -49l162 160q121 -203 331 -203q106 0 166 40.5t60 102.5q0 59 -49.5 95t-161.5 53l-113 16q-177 24 -281 117.5t-104 236.5q0 164 129 275q-78 91 -78 219q0 155 121.5 256.5t323.5 101.5q149 0 271.5 -58t191.5 -155l-156 -159q-118 151 -293 151q-93 0 -149 -37 t-56 -94q0 -109 148 -131l116 -16q204 -29 317 -126t113 -243q0 -164 -116 -274q80 -89 80 -213q0 -168 -135 -272.5t-351 -104.5q-319 0 -487 262zM342 594q0 -57 45.5 -96.5t130.5 -51.5l115 -16q65 -11 133 -31q68 53 68 136q0 58 -52 95t-172 58l-114 21q-45 6 -82 18 q-72 -60 -72 -133z" />
<glyph unicode="&#xa8;" d="M254 1225v256h262v-256h-262zM721 1225v256h262v-256h-262z" />
<glyph unicode="&#xa9;" horiz-adv-x="1703" d="M74 696q0 162 60.5 306.5t164 248t247.5 164t306 60.5q161 0 305 -60.5t247 -163.5t163.5 -248t60.5 -307t-60.5 -306.5t-163.5 -248t-247 -163.5t-305 -60q-162 0 -306 60t-247.5 163.5t-164 248t-60.5 306.5zM270 696q0 -165 75.5 -300t209.5 -212.5t297 -77.5 t296.5 77.5t208.5 212.5t75 300t-75 300t-208.5 212.5t-296.5 77.5t-297 -77.5t-209.5 -212.5t-75.5 -300zM463 696q0 105 45.5 194t137 145.5t212.5 56.5q224 0 338 -189l-139 -108q-72 120 -189 120q-94 0 -147 -60t-53 -159t53 -159t147 -60q114 0 189 121l139 -106 q-114 -189 -338 -189q-121 0 -212.5 56t-137 144.5t-45.5 192.5z" />
<glyph unicode="&#xaa;" horiz-adv-x="710" d="M78 999q0 81 63 129t158 48q80 0 141 -35v18q0 115 -114 115q-34 0 -67.5 -17t-51.5 -49l-115 88q33 55 96 89t150 34q130 0 199 -71t69 -199v-315h-164v47q-74 -62 -166 -62q-93 0 -145.5 49.5t-52.5 130.5zM246 1001q0 -27 21.5 -44t60.5 -17q66 0 112 37v57 q-50 31 -108 31q-41 0 -63.5 -17.5t-22.5 -46.5z" />
<glyph unicode="&#xab;" horiz-adv-x="1230" d="M59 575v82l349 390h245v-7l-346 -424l346 -423v-7h-245zM596 575v82l348 390h246v-7l-346 -424l346 -423v-7h-246z" />
<glyph unicode="&#xac;" d="M115 573v230h981l-2 -514h-230v284h-749z" />
<glyph unicode="&#xad;" horiz-adv-x="817" d="M111 516v209h598v-209h-598z" />
<glyph unicode="&#xae;" horiz-adv-x="1044" d="M84 987q0 186 125 310t313 124t313.5 -124t125.5 -310t-125.5 -310t-313.5 -124t-313 124t-125 310zM211 987q0 -137 87.5 -226t223.5 -89t224 89t88 226q0 135 -88 224t-224 89t-223.5 -88.5t-87.5 -224.5zM356 780v414h193q65 0 106 -36t41 -99q0 -42 -22 -73.5 t-58 -45.5l113 -154v-6h-129l-100 150h-29v-150h-115zM471 1022h68q19 0 31 10t12 27q0 19 -12 30t-31 11h-68v-78z" />
<glyph unicode="&#xaf;" d="M213 1257v189h709v-189h-709z" />
<glyph unicode="&#xb0;" horiz-adv-x="788" d="M63 1096q0 139 94.5 232t235.5 93q143 0 237.5 -93t94.5 -232q0 -140 -95 -233t-237 -93q-141 0 -235.5 93.5t-94.5 232.5zM252 1096q0 -61 39.5 -102.5t101.5 -41.5t102 41.5t40 102.5t-40 102t-102 41t-101.5 -41t-39.5 -102z" />
<glyph unicode="&#xb1;" d="M125 98v230h981v-230h-981zM125 733v230h375v329h229v-329h377v-230h-377v-284h-229v284h-375z" />
<glyph unicode="&#xb4;" d="M393 1196v6l156 309h262v-6l-188 -309h-230z" />
<glyph unicode="&#xb6;" horiz-adv-x="1198" d="M51 1022q0 176 102 272.5t271 98.5h256v-1733h-180v989h-76q-168 0 -270.5 98.5t-102.5 274.5zM846 -340v1733h180v-1733h-180z" />
<glyph unicode="&#xb7;" horiz-adv-x="536" d="M111 463v313h315v-313h-315z" />
<glyph unicode="&#xb8;" d="M348 -319l47 149q52 -37 111 -37q43 0 67.5 21t24.5 55q0 58 -61.5 98t-159.5 41l272 10q63 -29 99 -81t36 -115q0 -84 -66 -136.5t-179 -52.5q-111 0 -191 48z" />
<glyph unicode="&#xba;" horiz-adv-x="763" d="M66 1118q0 58 19.5 110.5t57 96t99 69t139.5 25.5t140.5 -25.5t100 -69t57 -96t19.5 -110.5t-19.5 -110.5t-57 -96t-100 -69t-140.5 -25.5t-139.5 25.5t-99 69t-57 96t-19.5 110.5zM242 1118q0 -67 39.5 -108t101.5 -41t101.5 41t39.5 108t-39.5 108.5t-101.5 41.5 t-101.5 -41.5t-39.5 -108.5z" />
<glyph unicode="&#xbb;" horiz-adv-x="1232" d="M68 188v7l346 423l-346 424v7h245l349 -390v-81l-349 -390h-245zM604 188v7l346 423l-346 424v7h246l348 -390v-81l-348 -390h-246z" />
<glyph unicode="&#xbc;" horiz-adv-x="1564" d="M47 1247l270 146h138v-762h-191v545l-147 -76zM281 0l723 1393h204l-721 -1393h-206zM809 172v139l326 451h237v-453h125v-137h-125v-172h-192v172h-371zM999 309h181v254z" />
<glyph unicode="&#xbd;" horiz-adv-x="1626" d="M47 1247l270 146h138v-762h-191v545l-147 -76zM289 0l723 1393h205l-721 -1393h-207zM973 575q12 37 32.5 71t53 64.5t80.5 49t106 18.5q135 0 213 -74.5t78 -183.5q0 -51 -18.5 -95.5t-46 -75t-64.5 -58.5t-70 -46.5t-66.5 -39.5t-49.5 -37h327v-168h-573v141 q27 47 75.5 91.5t97 77.5t93.5 65t73.5 67t28.5 70q0 42 -26.5 66t-75.5 24q-87 0 -125 -110z" />
<glyph unicode="&#xbe;" horiz-adv-x="1693" d="M53 739l109 133q82 -86 194 -86q58 0 92.5 22t34.5 62q0 74 -135 74h-84v148h84q48 0 71 19.5t23 49.5q0 34 -26.5 54t-71.5 20q-38 0 -68 -13t-43 -25.5t-30 -33.5l-113 123q45 54 114 88.5t152 34.5q136 0 209.5 -56.5t73.5 -158.5q0 -47 -27.5 -91t-76.5 -71 q71 -20 108 -68.5t37 -115.5q0 -109 -93.5 -171.5t-234.5 -62.5q-99 0 -175 37t-124 88zM414 0l723 1393h204l-720 -1393h-207zM948 172v139l326 451h237v-453h125v-137h-125v-172h-192v172h-371zM1139 309h180v254z" />
<glyph unicode="&#xbf;" horiz-adv-x="942" d="M61 12q0 115 49 192t130 138l92 68q47 35 66.5 68.5t19.5 84.5v21h225q16 -50 16 -88q0 -75 -32.5 -131.5t-106.5 -110.5l-92 -68q-106 -82 -106 -157q0 -67 48.5 -110.5t125.5 -43.5t126.5 43t67.5 119l207 -94q-18 -63 -51.5 -117t-83.5 -98.5t-122.5 -69.5t-160.5 -25 q-184 0 -301 108.5t-117 270.5zM369 741v314h315v-314h-315z" />
<glyph unicode="&#xc0;" horiz-adv-x="1394" d="M-2 0l543 1393h313l543 -1393h-277l-112 295h-621l-113 -295h-276zM395 1833v6h260l158 -309v-6h-231zM475 526h443l-222 582z" />
<glyph unicode="&#xc1;" horiz-adv-x="1394" d="M-2 0l543 1393h313l543 -1393h-277l-112 295h-621l-113 -295h-276zM475 526h443l-222 582zM584 1524v6l155 309h262v-6l-188 -309h-229z" />
<glyph unicode="&#xc2;" horiz-adv-x="1394" d="M-2 0l543 1393h313l543 -1393h-277l-112 295h-621l-113 -295h-276zM334 1524v6l235 309h258l236 -309v-6h-227l-140 170l-135 -170h-227zM475 526h443l-222 582z" />
<glyph unicode="&#xc3;" horiz-adv-x="1394" d="M-2 0l543 1393h313l543 -1393h-277l-112 295h-621l-113 -295h-276zM311 1585q72 242 250 242q51 0 97.5 -18.5t74 -40t58 -40t55.5 -18.5q62 0 96 113l162 -82q-72 -223 -250 -223q-51 0 -97.5 18t-74 39t-58 39t-55.5 18q-63 0 -96 -110zM475 526h443l-222 582z" />
<glyph unicode="&#xc4;" horiz-adv-x="1394" d="M-2 0l543 1393h313l543 -1393h-277l-112 295h-621l-113 -295h-276zM334 1552v256h262v-256h-262zM475 526h443l-222 582zM801 1552v256h262v-256h-262z" />
<glyph unicode="&#xc5;" horiz-adv-x="1394" d="M-2 0l532 1364q-67 64 -67 160t68 159.5t167 63.5q98 0 166 -63.5t68 -159.5q0 -92 -68 -160l533 -1364h-277l-112 295h-621l-113 -295h-276zM475 526h443l-222 582zM604 1524q0 -39 27 -64.5t67 -25.5t67.5 25.5t27.5 64.5t-27.5 64.5t-67.5 25.5t-67 -25.5t-27 -64.5z " />
<glyph unicode="&#xc6;" horiz-adv-x="1933" d="M-39 0v6l832 1387h1054v-234h-673v-340h575v-231h-575v-355h673v-233h-940v276h-485l-158 -276h-303zM555 508h352v612z" />
<glyph unicode="&#xc7;" horiz-adv-x="1447" d="M72 696q0 206 90.5 371.5t252.5 259.5t365 94q211 0 371 -91t254 -251l-199 -147q-145 242 -420 242q-132 0 -233 -63.5t-154 -171.5t-53 -243q0 -207 120.5 -342t319.5 -135q275 0 420 242l199 -148q-75 -130 -196.5 -215t-278.5 -112q98 -70 98 -189q0 -104 -75 -163.5 t-199 -59.5q-117 0 -203 51l51 180q58 -36 117 -36q46 0 71 21.5t25 57.5q0 38 -28.5 71.5t-79.5 55.5q-280 25 -457.5 226.5t-177.5 494.5z" />
<glyph unicode="&#xc8;" horiz-adv-x="1216" d="M152 0v1393h978v-234h-712v-340h614v-231h-614v-355h712v-233h-978zM338 1833v6h260l158 -309v-6h-232z" />
<glyph unicode="&#xc9;" horiz-adv-x="1216" d="M152 0v1393h978v-234h-712v-340h614v-231h-614v-355h712v-233h-978zM526 1524v6l156 309h262v-6l-188 -309h-230z" />
<glyph unicode="&#xca;" horiz-adv-x="1216" d="M152 0v1393h978v-234h-712v-340h614v-231h-614v-355h712v-233h-978zM276 1524v6l236 309h258l236 -309v-6h-228l-139 170l-135 -170h-228z" />
<glyph unicode="&#xcb;" horiz-adv-x="1216" d="M152 0v1393h978v-234h-712v-340h614v-231h-614v-355h712v-233h-978zM276 1552v256h263v-256h-263zM743 1552v256h263v-256h-263z" />
<glyph unicode="&#xcc;" horiz-adv-x="569" d="M-18 1833v6h260l157 -309v-6h-231zM152 0v1393h266v-1393h-266z" />
<glyph unicode="&#xcd;" horiz-adv-x="569" d="M152 0v1393h266v-1393h-266zM170 1524v6l156 309h262v-6l-189 -309h-229z" />
<glyph unicode="&#xce;" horiz-adv-x="569" d="M-80 1524v6l236 309h258l235 -309v-6h-227l-139 170l-136 -170h-227zM152 0v1393h266v-1393h-266z" />
<glyph unicode="&#xcf;" horiz-adv-x="569" d="M-80 1552v256h262v-256h-262zM152 0v1393h266v-1393h-266zM387 1552v256h262v-256h-262z" />
<glyph unicode="&#xd0;" horiz-adv-x="1501" d="M29 590v225h139v578h565q202 0 357 -79t245 -238.5t90 -379.5q0 -166 -51.5 -298.5t-144 -219t-219 -132.5t-277.5 -46h-565v590h-139zM434 233h285q201 0 316.5 120.5t115.5 342.5t-115.5 342.5t-316.5 120.5h-285v-344h340v-225h-340v-357z" />
<glyph unicode="&#xd1;" horiz-adv-x="1560" d="M152 0v1393h233l758 -951v951h266v-1393h-231l-760 950v-950h-266zM393 1585q72 242 250 242q51 0 97.5 -18.5t74 -40t58 -40t55.5 -18.5q62 0 96 113l162 -82q-72 -223 -250 -223q-51 0 -97.5 18t-74 39t-58 39t-55.5 18q-63 0 -96 -110z" />
<glyph unicode="&#xd2;" horiz-adv-x="1560" d="M72 696q0 -206 90.5 -371.5t252.5 -259.5t365 -94q152 0 284 55t225.5 151t146.5 230.5t53 288.5t-53 288.5t-146.5 230.5t-225.5 151t-284 55q-203 0 -365 -94t-252.5 -259.5t-90.5 -371.5zM346 696q0 207 118.5 342.5t315.5 135.5t315.5 -135.5t118.5 -342.5 t-118.5 -342t-315.5 -135t-315.5 135t-118.5 342zM477 1833v6h260l158 -309v-6h-231z" />
<glyph unicode="&#xd3;" horiz-adv-x="1560" d="M72 696q0 -206 90.5 -371.5t252.5 -259.5t365 -94q152 0 284 55t225.5 151t146.5 230.5t53 288.5t-53 288.5t-146.5 230.5t-225.5 151t-284 55q-203 0 -365 -94t-252.5 -259.5t-90.5 -371.5zM346 696q0 207 118.5 342.5t315.5 135.5t315.5 -135.5t118.5 -342.5 t-118.5 -342t-315.5 -135t-315.5 135t-118.5 342zM666 1524v6l155 309h262v-6l-188 -309h-229z" />
<glyph unicode="&#xd4;" horiz-adv-x="1560" d="M72 696q0 -206 90.5 -371.5t252.5 -259.5t365 -94q152 0 284 55t225.5 151t146.5 230.5t53 288.5t-53 288.5t-146.5 230.5t-225.5 151t-284 55q-203 0 -365 -94t-252.5 -259.5t-90.5 -371.5zM346 696q0 207 118.5 342.5t315.5 135.5t315.5 -135.5t118.5 -342.5 t-118.5 -342t-315.5 -135t-315.5 135t-118.5 342zM416 1524v6l235 309h258l236 -309v-6h-227l-140 170l-135 -170h-227z" />
<glyph unicode="&#xd5;" horiz-adv-x="1560" d="M72 696q0 -206 90.5 -371.5t252.5 -259.5t365 -94q152 0 284 55t225.5 151t146.5 230.5t53 288.5t-53 288.5t-146.5 230.5t-225.5 151t-284 55q-203 0 -365 -94t-252.5 -259.5t-90.5 -371.5zM346 696q0 207 118.5 342.5t315.5 135.5t315.5 -135.5t118.5 -342.5 t-118.5 -342t-315.5 -135t-315.5 135t-118.5 342zM393 1585q72 242 250 242q51 0 97.5 -18.5t74 -40t58 -40t55.5 -18.5q62 0 96 113l162 -82q-72 -223 -250 -223q-51 0 -97.5 18t-74 39t-58 39t-55.5 18q-63 0 -96 -110z" />
<glyph unicode="&#xd6;" horiz-adv-x="1560" d="M72 696q0 -206 90.5 -371.5t252.5 -259.5t365 -94q152 0 284 55t225.5 151t146.5 230.5t53 288.5t-53 288.5t-146.5 230.5t-225.5 151t-284 55q-203 0 -365 -94t-252.5 -259.5t-90.5 -371.5zM346 696q0 207 118.5 342.5t315.5 135.5t315.5 -135.5t118.5 -342.5 t-118.5 -342t-315.5 -135t-315.5 135t-118.5 342zM416 1552v256h262v-256h-262zM883 1552v256h262v-256h-262z" />
<glyph unicode="&#xd7;" d="M172 342l281 279l-281 278l162 164l280 -283l279 283l164 -164l-281 -278l281 -279l-164 -164l-279 281l-280 -281z" />
<glyph unicode="&#xd8;" horiz-adv-x="1560" d="M72 696q0 206 90.5 371.5t252.5 259.5t365 94q129 0 244 -41l43 76h295v-6l-113 -197q114 -98 177 -242.5t63 -314.5q0 -154 -53 -288.5t-146 -230.5t-225 -151t-285 -55q-133 0 -248 41l-43 -75h-296v6l116 198q-113 99 -175 242.5t-62 312.5zM346 696q0 -198 107 -329 l456 788q-74 19 -129 19q-197 0 -315.5 -135.5t-118.5 -342.5zM649 238q62 -19 131 -19q197 0 315.5 135t118.5 342q0 202 -110 330z" />
<glyph unicode="&#xd9;" horiz-adv-x="1449" d="M135 594v799h266v-781q0 -186 79.5 -289.5t246.5 -103.5q166 0 245 103.5t79 289.5v781h266v-799q0 -136 -37.5 -249t-109.5 -196.5t-185.5 -130.5t-257.5 -47q-145 0 -258.5 47t-186 130.5t-110 196.5t-37.5 249zM422 1833v6h260l158 -309v-6h-232z" />
<glyph unicode="&#xda;" horiz-adv-x="1449" d="M135 594v799h266v-781q0 -186 79.5 -289.5t246.5 -103.5q166 0 245 103.5t79 289.5v781h266v-799q0 -136 -37.5 -249t-109.5 -196.5t-185.5 -130.5t-257.5 -47q-145 0 -258.5 47t-186 130.5t-110 196.5t-37.5 249zM610 1524v6l156 309h262v-6l-188 -309h-230z" />
<glyph unicode="&#xdb;" horiz-adv-x="1449" d="M135 594v799h266v-781q0 -186 79.5 -289.5t246.5 -103.5q166 0 245 103.5t79 289.5v781h266v-799q0 -136 -37.5 -249t-109.5 -196.5t-185.5 -130.5t-257.5 -47q-145 0 -258.5 47t-186 130.5t-110 196.5t-37.5 249zM360 1524v6l236 309h258l236 -309v-6h-228l-139 170 l-135 -170h-228z" />
<glyph unicode="&#xdc;" horiz-adv-x="1449" d="M135 594v799h266v-781q0 -186 79.5 -289.5t246.5 -103.5q166 0 245 103.5t79 289.5v781h266v-799q0 -136 -37.5 -249t-109.5 -196.5t-185.5 -130.5t-257.5 -47q-145 0 -258.5 47t-186 130.5t-110 196.5t-37.5 249zM360 1552v256h263v-256h-263zM827 1552v256h263v-256 h-263z" />
<glyph unicode="&#xdd;" horiz-adv-x="1314" d="M2 1386v7h311l344 -549l344 549h312v-7l-522 -804v-582h-267v582zM543 1524v6l155 309h263v-6l-189 -309h-229z" />
<glyph unicode="&#xde;" horiz-adv-x="1218" d="M152 0v1393h266v-250h258q229 0 363.5 -110.5t134.5 -325.5q0 -216 -134.5 -326.5t-363.5 -110.5h-258v-270h-266zM418 504h223q126 0 192 47.5t66 155.5t-66 155t-192 47h-223v-405z" />
<glyph unicode="&#xdf;" horiz-adv-x="1241" d="M123 0v1018q0 215 123.5 336t339.5 121q201 0 325.5 -108t124.5 -265q0 -191 -147 -277q134 -43 213.5 -146t79.5 -257q0 -106 -38 -191t-103.5 -138.5t-151 -82t-182.5 -28.5q-114 0 -187 18l27 227q52 -14 115 -14q112 0 182.5 63t70.5 168t-70 170.5t-190 65.5h-96 v209h16q98 0 147.5 49.5t49.5 126.5t-52 127.5t-140 50.5q-90 0 -143.5 -55.5t-53.5 -145.5v-1042h-260z" />
<glyph unicode="&#xe0;" horiz-adv-x="1288" d="M66 526q0 248 142.5 400.5t364.5 152.5q100 0 184.5 -39.5t145.5 -107.5v123h260v-1055h-260v121q-60 -68 -145 -107t-185 -39q-222 0 -364.5 151.5t-142.5 399.5zM330 526q0 -148 85 -233.5t216 -85.5q89 0 163 42.5t109 115.5v323q-35 74 -109 117t-163 43 q-131 0 -216 -86t-85 -236zM346 1505v6h260l158 -309v-6h-232z" />
<glyph unicode="&#xe1;" horiz-adv-x="1288" d="M66 526q0 248 142.5 400.5t364.5 152.5q100 0 184.5 -39.5t145.5 -107.5v123h260v-1055h-260v121q-60 -68 -145 -107t-185 -39q-222 0 -364.5 151.5t-142.5 399.5zM330 526q0 -148 85 -233.5t216 -85.5q89 0 163 42.5t109 115.5v323q-35 74 -109 117t-163 43 q-131 0 -216 -86t-85 -236zM535 1196v6l155 309h262v-6l-188 -309h-229z" />
<glyph unicode="&#xe2;" horiz-adv-x="1288" d="M66 526q0 248 142.5 400.5t364.5 152.5q100 0 184.5 -39.5t145.5 -107.5v123h260v-1055h-260v121q-60 -68 -145 -107t-185 -39q-222 0 -364.5 151.5t-142.5 399.5zM285 1196v6l235 309h258l236 -309v-6h-228l-139 170l-135 -170h-227zM330 526q0 -148 85 -233.5 t216 -85.5q89 0 163 42.5t109 115.5v323q-35 74 -109 117t-163 43q-131 0 -216 -86t-85 -236z" />
<glyph unicode="&#xe3;" horiz-adv-x="1288" d="M66 526q0 248 142.5 400.5t364.5 152.5q100 0 184.5 -39.5t145.5 -107.5v123h260v-1055h-260v121q-60 -68 -145 -107t-185 -39q-222 0 -364.5 151.5t-142.5 399.5zM262 1257q72 242 250 242q51 0 97.5 -18.5t74 -40t58 -40t55.5 -18.5q62 0 96 113l162 -82 q-72 -223 -250 -223q-51 0 -97.5 18t-74 39.5t-58 39.5t-55.5 18q-62 0 -96 -111zM330 526q0 -148 85 -233.5t216 -85.5q89 0 163 42.5t109 115.5v323q-35 74 -109 117t-163 43q-131 0 -216 -86t-85 -236z" />
<glyph unicode="&#xe4;" horiz-adv-x="1288" d="M66 526q0 248 142.5 400.5t364.5 152.5q100 0 184.5 -39.5t145.5 -107.5v123h260v-1055h-260v121q-60 -68 -145 -107t-185 -39q-222 0 -364.5 151.5t-142.5 399.5zM285 1225v256h262v-256h-262zM330 526q0 -148 85 -233.5t216 -85.5q89 0 163 42.5t109 115.5v323 q-35 74 -109 117t-163 43q-131 0 -216 -86t-85 -236zM752 1225v256h262v-256h-262z" />
<glyph unicode="&#xe5;" horiz-adv-x="1288" d="M66 526q0 248 142.5 400.5t364.5 152.5q100 0 184.5 -39.5t145.5 -107.5v123h260v-1055h-260v121q-60 -68 -145 -107t-185 -39q-222 0 -364.5 151.5t-142.5 399.5zM330 526q0 -148 85 -233.5t216 -85.5q89 0 163 42.5t109 115.5v323q-35 74 -109 117t-163 43 q-131 0 -216 -86t-85 -236zM414 1372q0 96 68 159.5t167 63.5q98 0 166 -63.5t68 -159.5t-68 -159.5t-166 -63.5q-99 0 -167 63.5t-68 159.5zM555 1372q0 -39 27 -64.5t67 -25.5t67 25.5t27 64.5t-27 64.5t-67 25.5t-67 -25.5t-27 -64.5z" />
<glyph unicode="&#xe6;" horiz-adv-x="1832" d="M57 303q0 165 116 256.5t343 91.5h223q-26 197 -237 197q-163 0 -291 -117l-105 201q90 71 184 109t222 38q249 0 367 -157q144 157 385 157q230 0 369 -143.5t139 -372.5q0 -22 -5.5 -71t-5.5 -54h-766q21 -112 98.5 -175.5t209.5 -63.5q92 0 171 44t128 111l145 -170 q-80 -96 -197 -153.5t-260 -57.5q-255 0 -403 154q-176 -154 -428 -154q-175 0 -288.5 93t-113.5 237zM313 317q0 -50 48 -84t131 -34q157 0 282 118q-19 51 -29 121h-204q-228 0 -228 -121zM1001 651h519q-12 100 -80.5 156.5t-175.5 56.5q-100 0 -168.5 -55t-94.5 -158z " />
<glyph unicode="&#xe7;" horiz-adv-x="1126" d="M63 526q0 109 37 208.5t105.5 176.5t174 122.5t232.5 45.5q306 0 469 -262l-184 -141q-98 172 -270 172q-136 0 -217.5 -87.5t-81.5 -234.5q0 -146 82 -232.5t217 -86.5q172 0 270 172l184 -141q-129 -205 -344 -250q86 -67 86 -166q0 -84 -66 -136.5t-179 -52.5 q-111 0 -191 48l47 149q52 -37 111 -37q43 0 67.5 21t24.5 55q0 68 -82 108q-152 13 -266 93.5t-170 199t-56 256.5z" />
<glyph unicode="&#xe8;" horiz-adv-x="1165" d="M66 524q0 246 149 400.5t381 154.5q229 0 368.5 -143.5t139.5 -372.5q0 -41 -12 -127h-764q21 -110 98 -173.5t209 -63.5q92 0 171 44t128 111l143 -170q-79 -96 -195 -153.5t-259 -57.5q-167 0 -295 74t-195 198.5t-67 278.5zM293 1505v6h260l158 -309v-6h-232zM332 649 h514q-10 102 -76.5 158.5t-173.5 56.5q-101 0 -169.5 -55.5t-94.5 -159.5z" />
<glyph unicode="&#xe9;" horiz-adv-x="1165" d="M66 524q0 246 149 400.5t381 154.5q229 0 368.5 -143.5t139.5 -372.5q0 -41 -12 -127h-764q21 -110 98 -173.5t209 -63.5q92 0 171 44t128 111l143 -170q-79 -96 -195 -153.5t-259 -57.5q-167 0 -295 74t-195 198.5t-67 278.5zM332 649h514q-10 102 -76.5 158.5 t-173.5 56.5q-101 0 -169.5 -55.5t-94.5 -159.5zM481 1196v6l156 309h262v-6l-188 -309h-230z" />
<glyph unicode="&#xea;" horiz-adv-x="1165" d="M66 524q0 246 149 400.5t381 154.5q229 0 368.5 -143.5t139.5 -372.5q0 -41 -12 -127h-764q21 -110 98 -173.5t209 -63.5q92 0 171 44t128 111l143 -170q-79 -96 -195 -153.5t-259 -57.5q-167 0 -295 74t-195 198.5t-67 278.5zM231 1196v6l236 309h258l236 -309v-6h-228 l-139 170l-135 -170h-228zM332 649h514q-10 102 -76.5 158.5t-173.5 56.5q-101 0 -169.5 -55.5t-94.5 -159.5z" />
<glyph unicode="&#xeb;" horiz-adv-x="1165" d="M66 524q0 246 149 400.5t381 154.5q229 0 368.5 -143.5t139.5 -372.5q0 -41 -12 -127h-764q21 -110 98 -173.5t209 -63.5q92 0 171 44t128 111l143 -170q-79 -96 -195 -153.5t-259 -57.5q-167 0 -295 74t-195 198.5t-67 278.5zM231 1225v256h263v-256h-263zM332 649h514 q-10 102 -76.5 158.5t-173.5 56.5q-101 0 -169.5 -55.5t-94.5 -159.5zM698 1225v256h263v-256h-263z" />
<glyph unicode="&#xec;" horiz-adv-x="507" d="M-49 1505v6h260l158 -309v-6h-232zM123 0v1055h260v-1055h-260z" />
<glyph unicode="&#xed;" horiz-adv-x="507" d="M123 0v1055h260v-1055h-260zM139 1196v6l156 309h262v-6l-188 -309h-230z" />
<glyph unicode="&#xee;" horiz-adv-x="507" d="M-111 1196v6l236 309h258l235 -309v-6h-227l-139 170l-135 -170h-228zM123 0v1055h260v-1055h-260z" />
<glyph unicode="&#xef;" horiz-adv-x="507" d="M-111 1225v256h263v-256h-263zM123 0v1055h260v-1055h-260zM356 1225v256h262v-256h-262z" />
<glyph unicode="&#xf0;" horiz-adv-x="1210" d="M63 496q0 218 135 361.5t332 143.5q163 0 275 -106q-63 129 -166 244l-279 -80l-45 160l191 55q-77 72 -205 174v6h315q74 -52 136 -111l241 72l43 -160l-155 -45q121 -146 191.5 -313.5t70.5 -331.5q0 -120 -35.5 -226.5t-101.5 -189t-170.5 -130.5t-233.5 -48 q-128 0 -232 43.5t-170 116.5t-101.5 167t-35.5 198zM328 489q0 -130 77 -208t197 -78q121 0 199 98.5t78 265.5q0 13 -5 58q-103 159 -274 159q-119 0 -195.5 -81t-76.5 -214z" />
<glyph unicode="&#xf1;" d="M123 0v1055h260v-148q46 76 132 124t202 48q199 0 300 -123.5t101 -334.5v-621h-260v592q0 126 -59 191t-174 65q-92 0 -156 -53.5t-86 -130.5v-664h-260zM231 1257q72 242 250 242q51 0 97.5 -18.5t74 -40t58 -40t55.5 -18.5q62 0 96 113l162 -82q-72 -223 -250 -223 q-51 0 -97.5 18t-74 39.5t-58 39.5t-55.5 18q-62 0 -96 -111z" />
<glyph unicode="&#xf2;" horiz-adv-x="1245" d="M63 526q0 110 36.5 208.5t105 176t177 123t241.5 45.5t241.5 -45.5t176.5 -123t104.5 -176t36.5 -208.5q0 -111 -36.5 -210t-104.5 -176.5t-176.5 -123t-241.5 -45.5t-241.5 45.5t-177 123t-105 176.5t-36.5 210zM319 1505v6h261l157 -309v-6h-231zM328 526 q0 -146 83 -234.5t212 -88.5t212 88.5t83 234.5q0 145 -83 233.5t-212 88.5t-212 -88.5t-83 -233.5z" />
<glyph unicode="&#xf3;" horiz-adv-x="1245" d="M63 526q0 110 36.5 208.5t105 176t177 123t241.5 45.5t241.5 -45.5t176.5 -123t104.5 -176t36.5 -208.5q0 -111 -36.5 -210t-104.5 -176.5t-176.5 -123t-241.5 -45.5t-241.5 45.5t-177 123t-105 176.5t-36.5 210zM328 526q0 -146 83 -234.5t212 -88.5t212 88.5t83 234.5 q0 145 -83 233.5t-212 88.5t-212 -88.5t-83 -233.5zM508 1196v6l156 309h262v-6l-189 -309h-229z" />
<glyph unicode="&#xf4;" horiz-adv-x="1245" d="M63 526q0 110 36.5 208.5t105 176t177 123t241.5 45.5t241.5 -45.5t176.5 -123t104.5 -176t36.5 -208.5q0 -111 -36.5 -210t-104.5 -176.5t-176.5 -123t-241.5 -45.5t-241.5 45.5t-177 123t-105 176.5t-36.5 210zM258 1196v6l236 309h258l235 -309v-6h-227l-139 170 l-136 -170h-227zM328 526q0 -146 83 -234.5t212 -88.5t212 88.5t83 234.5q0 145 -83 233.5t-212 88.5t-212 -88.5t-83 -233.5z" />
<glyph unicode="&#xf5;" horiz-adv-x="1245" d="M63 526q0 110 36.5 208.5t105 176t177 123t241.5 45.5t241.5 -45.5t176.5 -123t104.5 -176t36.5 -208.5q0 -111 -36.5 -210t-104.5 -176.5t-176.5 -123t-241.5 -45.5t-241.5 45.5t-177 123t-105 176.5t-36.5 210zM236 1257q72 242 249 242q51 0 97.5 -18.5t74 -40t58 -40 t55.5 -18.5q62 0 96 113l162 -82q-72 -223 -250 -223q-51 0 -97.5 18t-73.5 39.5t-57.5 39.5t-55.5 18q-63 0 -97 -111zM328 526q0 -146 83 -234.5t212 -88.5t212 88.5t83 234.5q0 145 -83 233.5t-212 88.5t-212 -88.5t-83 -233.5z" />
<glyph unicode="&#xf6;" horiz-adv-x="1245" d="M63 526q0 110 36.5 208.5t105 176t177 123t241.5 45.5t241.5 -45.5t176.5 -123t104.5 -176t36.5 -208.5q0 -111 -36.5 -210t-104.5 -176.5t-176.5 -123t-241.5 -45.5t-241.5 45.5t-177 123t-105 176.5t-36.5 210zM258 1225v256h262v-256h-262zM328 526q0 -146 83 -234.5 t212 -88.5t212 88.5t83 234.5q0 145 -83 233.5t-212 88.5t-212 -88.5t-83 -233.5zM725 1225v256h262v-256h-262z" />
<glyph unicode="&#xf7;" d="M125 506v229h981v-229h-981zM477 63v279h277v-279h-277zM477 899v279h277v-279h-277z" />
<glyph unicode="&#xf8;" horiz-adv-x="1245" d="M63 526q0 110 36.5 208.5t105 176t177 123t241.5 45.5q91 0 174 -22l37 65h258v-6l-95 -164q89 -77 137 -189t48 -237q0 -111 -36.5 -210t-104.5 -176.5t-176.5 -123t-241.5 -45.5q-95 0 -181 25l-36 -68h-261v6l99 168q-88 77 -134.5 188t-46.5 236zM324 526 q0 -121 55 -207l309 533q-30 6 -65 6q-131 0 -215 -91.5t-84 -240.5zM551 201q35 -6 72 -6q131 0 215 91t84 240q0 124 -62 211z" />
<glyph unicode="&#xf9;" d="M111 434v621h260v-592q0 -126 59 -191t174 -65q92 0 156 53.5t86 130.5v664h260v-1055h-260v147q-46 -76 -132 -124t-202 -48q-199 0 -300 124t-101 335zM311 1505v6h260l158 -309v-6h-231z" />
<glyph unicode="&#xfa;" d="M111 434v621h260v-592q0 -126 59 -191t174 -65q92 0 156 53.5t86 130.5v664h260v-1055h-260v147q-46 -76 -132 -124t-202 -48q-199 0 -300 124t-101 335zM498 1196v6l155 309h262v-6l-188 -309h-229z" />
<glyph unicode="&#xfb;" d="M111 434v621h260v-592q0 -126 59 -191t174 -65q92 0 156 53.5t86 130.5v664h260v-1055h-260v147q-46 -76 -132 -124t-202 -48q-199 0 -300 124t-101 335zM250 1196v6l235 309h258l236 -309v-6h-227l-140 170l-135 -170h-227z" />
<glyph unicode="&#xfc;" d="M111 434v621h260v-592q0 -126 59 -191t174 -65q92 0 156 53.5t86 130.5v664h260v-1055h-260v147q-46 -76 -132 -124t-202 -48q-199 0 -300 124t-101 335zM246 1225v256h262v-256h-262zM713 1225v256h262v-256h-262z" />
<glyph unicode="&#xfd;" horiz-adv-x="1110" d="M8 1055h279l280 -631l260 631h281l-619 -1409h-280l221 489zM440 1196v6l156 309h262v-6l-188 -309h-230z" />
<glyph unicode="&#xfe;" horiz-adv-x="1288" d="M123 -354v1808h260v-524q59 69 145 109t187 40q221 0 363.5 -152.5t142.5 -400.5q0 -247 -142.5 -399t-363.5 -152q-101 0 -187 40t-145 108v-477h-260zM383 365q35 -73 109 -115.5t163 -42.5q131 0 216 85.5t85 233.5q0 150 -85 236t-216 86q-89 0 -163 -43t-109 -117 v-323z" />
<glyph unicode="&#xff;" horiz-adv-x="1110" d="M8 1055h279l280 -631l260 631h281l-619 -1409h-280l221 489zM190 1225v256h263v-256h-263zM657 1225v256h263v-256h-263z" />
<glyph unicode="&#x152;" horiz-adv-x="2004" d="M72 696q0 206 91 371.5t254 259.5t367 94q92 0 207 -28h926v-234h-676v-340h580v-231h-580v-355h676v-233h-926q-120 -29 -207 -29q-204 0 -367 94t-254 259.5t-91 371.5zM346 696q0 -135 52.5 -243t153 -171t232.5 -63q98 0 191 39v877q-93 39 -191 39 q-132 0 -232.5 -63.5t-153 -171.5t-52.5 -243z" />
<glyph unicode="&#x153;" horiz-adv-x="2007" d="M63 526q0 110 36 208.5t104 176t174.5 123t238.5 45.5q274 0 420 -194q68 93 173.5 143.5t236.5 50.5q227 0 363.5 -143.5t136.5 -372.5q0 -57 -13 -127h-762q21 -110 99 -173.5t207 -63.5q93 0 172.5 43.5t128.5 111.5l143 -170q-79 -96 -194 -153.5t-257 -57.5 q-139 0 -249 52t-181 145q-147 -199 -424 -199q-132 0 -238.5 45.5t-174.5 123t-104 176.5t-36 210zM328 526q0 -146 83 -234.5t212 -88.5t212 88.5t83 234.5q0 145 -83 233.5t-212 88.5t-212 -88.5t-83 -233.5zM1176 649h520q-12 101 -82 158t-176 57q-101 0 -170 -56 t-92 -159z" />
<glyph unicode="&#x178;" horiz-adv-x="1314" d="M2 1386v7h311l344 -549l344 549h312v-7l-522 -804v-582h-267v582zM293 1552v256h262v-256h-262zM760 1552v256h262v-256h-262z" />
<glyph unicode="&#x2c6;" d="M266 1196v6l236 309h258l235 -309v-6h-227l-139 170l-135 -170h-228z" />
<glyph unicode="&#x2dc;" d="M180 1257q72 242 250 242q51 0 97.5 -18.5t74 -40t58 -40t55.5 -18.5q62 0 96 113l162 -82q-72 -223 -250 -223q-51 0 -97.5 18t-74 39.5t-58 39.5t-55.5 18q-62 0 -96 -111z" />
<glyph unicode="&#x2000;" horiz-adv-x="919" />
<glyph unicode="&#x2001;" horiz-adv-x="1839" />
<glyph unicode="&#x2002;" horiz-adv-x="919" />
<glyph unicode="&#x2003;" horiz-adv-x="1839" />
<glyph unicode="&#x2004;" horiz-adv-x="613" />
<glyph unicode="&#x2005;" horiz-adv-x="459" />
<glyph unicode="&#x2006;" horiz-adv-x="306" />
<glyph unicode="&#x2007;" horiz-adv-x="306" />
<glyph unicode="&#x2008;" horiz-adv-x="229" />
<glyph unicode="&#x2009;" horiz-adv-x="367" />
<glyph unicode="&#x200a;" horiz-adv-x="102" />
<glyph unicode="&#x2010;" horiz-adv-x="817" d="M111 516v209h598v-209h-598z" />
<glyph unicode="&#x2011;" horiz-adv-x="817" d="M111 516v209h598v-209h-598z" />
<glyph unicode="&#x2012;" horiz-adv-x="817" d="M111 516v209h598v-209h-598z" />
<glyph unicode="&#x2013;" horiz-adv-x="1214" d="M111 516v209h948v-209h-948z" />
<glyph unicode="&#x2014;" horiz-adv-x="1914" d="M111 516v209h1538v-209h-1538z" />
<glyph unicode="&#x2018;" horiz-adv-x="497" d="M94 807v262l135 324h146l-117 -289h137v-297h-301z" />
<glyph unicode="&#x2019;" horiz-adv-x="483" d="M102 1096v297h301v-263l-135 -323h-145l117 289h-138z" />
<glyph unicode="&#x201a;" horiz-adv-x="514" d="M106 0v297h302v-262l-136 -324h-145l117 289h-138z" />
<glyph unicode="&#x201c;" horiz-adv-x="923" d="M96 807v262l133 324h146l-117 -289h137v-297h-299zM522 807v262l133 324h146l-117 -289h137v-297h-299z" />
<glyph unicode="&#x201d;" horiz-adv-x="911" d="M102 1096v297h301v-263l-135 -323h-145l117 289h-138zM530 1096v297h301v-263l-135 -323h-145l117 289h-138z" />
<glyph unicode="&#x201e;" horiz-adv-x="942" d="M106 0v297h302v-262l-136 -324h-145l117 289h-138zM535 0v297h301v-262l-136 -324h-145l117 289h-137z" />
<glyph unicode="&#x2022;" horiz-adv-x="819" d="M133 618q0 114 76.5 190.5t198.5 76.5q123 0 199.5 -76.5t76.5 -190.5q0 -117 -76.5 -193.5t-199.5 -76.5t-199 76.5t-76 193.5z" />
<glyph unicode="&#x2026;" horiz-adv-x="1538" d="M109 0v313h315v-313h-315zM610 0v313h316v-313h-316zM1114 0v313h316v-313h-316z" />
<glyph unicode="&#x202f;" horiz-adv-x="367" />
<glyph unicode="&#x2039;" horiz-adv-x="720" d="M59 575v82l349 390h245v-7l-346 -424l346 -423v-7h-245z" />
<glyph unicode="&#x203a;" horiz-adv-x="722" d="M68 188v7l346 423l-346 424v7h245l349 -390v-81l-349 -390h-245z" />
<glyph unicode="&#x205f;" horiz-adv-x="459" />
<glyph unicode="&#x20ac;" d="M43 414v219h107q-3 30 -3 63q0 32 3 62h-107v219h145q65 206 218.5 325t361.5 119q260 0 424 -196l-154 -189q-56 69 -118 103.5t-144 34.5q-104 0 -182.5 -50t-122.5 -147h461v-219h-508q-2 -20 -2 -62q0 -43 2 -63h508v-219h-459q88 -195 303 -195q83 0 144.5 34.5 t117.5 102.5l154 -188q-164 -197 -424 -197q-206 0 -360 119t-220 324h-145z" />
<glyph unicode="&#x2122;" horiz-adv-x="1527" d="M61 1249v142h519v-142h-179v-477h-161v477h-179zM672 772v619h223l139 -361l137 361h224v-619h-162v397l-141 -397h-115l-143 404v-404h-162z" />
<glyph unicode="&#x25fc;" horiz-adv-x="1054" d="M0 0v1055h1055v-1055h-1055z" />
<glyph unicode="&#xfb01;" horiz-adv-x="1216" d="M47 846v209h164v61q0 159 95 258t274 99q54 0 98 -7v-211h-45q-162 0 -162 -141v-59h207v-209h-207v-846h-260v846h-164zM827 1233v270h267v-270h-267zM831 0v1055h261v-1055h-261z" />
<glyph unicode="&#xfb02;" horiz-adv-x="1216" d="M47 846v209h164v61q0 159 95 258t274 99q54 0 98 -7v-211h-45q-162 0 -162 -141v-59h207v-209h-207v-846h-260v846h-164zM831 0v1454h261v-1454h-261z" />
</font>
</defs>
</svg>
