<?xml version="1.0" standalone="no"?>
<!DOCTYPE svg PUBLIC "-//W3C//DTD SVG 1.1//EN" "http://www.w3.org/Graphics/SVG/1.1/DTD/svg11.dtd" >
<svg xmlns="http://www.w3.org/2000/svg">
<metadata></metadata>
<defs>
<font id="hyundai_sans_headlight" horiz-adv-x="1228" >
<font-face units-per-em="2048" ascent="1536" descent="-512" />
<missing-glyph horiz-adv-x="524" />
<glyph horiz-adv-x="0" />
<glyph horiz-adv-x="682" />
<glyph unicode="&#xd;" horiz-adv-x="524" />
<glyph unicode=" "  horiz-adv-x="524" />
<glyph unicode="&#x09;" horiz-adv-x="524" />
<glyph unicode="&#xa0;" horiz-adv-x="524" />
<glyph unicode="!" horiz-adv-x="479" d="M156 0v168h166v-168h-166zM182 1393h115l-25 -990h-65z" />
<glyph unicode="&#x22;" horiz-adv-x="698" d="M133 1393h127l-29 -463h-69zM438 1393h127l-28 -463h-70z" />
<glyph unicode="#" horiz-adv-x="1259" d="M72 371v90h194l109 479h-205v90h225l82 363h98l-81 -363h409l82 363h98l-82 -363h189v-90h-207l-106 -479h215v-90h-236l-82 -371h-100l82 371h-410l-82 -371h-100l82 371h-174zM367 461h409l107 479h-410z" />
<glyph unicode="$" d="M80 313l84 58q65 -123 173.5 -203t266.5 -86v612l-57 11q-166 27 -263.5 117t-97.5 233q0 138 112.5 243t305.5 115v195h98v-197q131 -13 231 -75.5t157 -161.5l-84 -58q-108 168 -304 191v-523h7q198 -32 306.5 -128t108.5 -255q0 -163 -112.5 -279.5t-309.5 -137.5 v-211h-98v207q-98 3 -184 32.5t-149.5 78.5t-109.5 103.5t-81 118.5zM293 1055q0 -104 71.5 -166t192.5 -80l47 -8v508q-142 -9 -226.5 -80.5t-84.5 -173.5zM702 86q151 20 233.5 107t82.5 208q0 115 -86.5 184.5t-229.5 92.5v-592z" />
<glyph unicode="%" horiz-adv-x="1507" d="M66 1094q0 137 90.5 228t228.5 91t229 -91t91 -228t-91 -228.5t-229 -91.5t-228.5 91.5t-90.5 228.5zM160 1094q0 -98 63 -164t162 -66t162 66t63 164t-63 163.5t-162 65.5t-162 -65.5t-63 -163.5zM342 0l723 1393h100l-721 -1393h-102zM803 299q0 137 90.5 228t228.5 91 t229 -91t91 -228t-91 -228t-229 -91t-228.5 91t-90.5 228zM897 299q0 -98 63 -163.5t162 -65.5t162.5 65.5t63.5 163.5t-63.5 163.5t-162.5 65.5t-162 -65.5t-63 -163.5z" />
<glyph unicode="&#x26;" horiz-adv-x="1359" d="M68 385q0 163 101 263.5t286 160.5q-55 69 -87 133.5t-32 138.5q0 139 98.5 235.5t251.5 96.5q144 0 236 -91t92 -220q0 -122 -85.5 -202.5t-232.5 -121.5l-63 -18l332 -363l233 340l88 -55l-250 -365l287 -311v-6h-139l-209 231q-201 -251 -475 -251 q-191 0 -311.5 115.5t-120.5 289.5zM174 385q0 -129 93 -216t233 -87q235 0 403 227l-379 422q-82 -25 -140.5 -52.5t-108.5 -67.5t-75.5 -96.5t-25.5 -129.5zM442 1081q0 -66 29.5 -121t87.5 -120l109 30q120 34 179.5 87.5t59.5 144.5t-63 150t-158 59q-108 0 -176 -65 t-68 -165z" />
<glyph unicode="'" horiz-adv-x="393" d="M133 1393h127l-29 -463h-69z" />
<glyph unicode="(" horiz-adv-x="624" d="M100 535q0 142 26.5 270.5t68 223t100 177.5t114 137.5t117.5 100.5l62 -76q-77 -57 -142.5 -133t-120.5 -177.5t-86.5 -236t-31.5 -286.5t31.5 -286.5t86.5 -236.5t120.5 -178t142.5 -133l-62 -76q-62 46 -117.5 100.5t-114 137.5t-100 178t-68 223.5t-26.5 270.5z" />
<glyph unicode=")" horiz-adv-x="622" d="M37 -299q77 57 142.5 133t120.5 178t86.5 236.5t31.5 286.5t-31.5 286.5t-86.5 236t-120.5 177.5t-142.5 133l61 76q62 -46 117.5 -100.5t114 -137.5t100 -177.5t68 -223t26.5 -270.5t-26.5 -270.5t-68 -223.5t-100 -178t-114 -137.5t-117.5 -100.5z" />
<glyph unicode="*" horiz-adv-x="864" d="M86 1108l29 88l276 -96l-6 293h94l-6 -293l277 96l28 -88l-282 -84l180 -233l-78 -56l-166 242l-166 -242l-78 56l181 233z" />
<glyph unicode="+" d="M154 573v91h415v417h90v-417h416v-91h-416v-415h-90v415h-415z" />
<glyph unicode="," horiz-adv-x="444" d="M139 0v168h166v-148l-78 -339h-88l74 319h-74z" />
<glyph unicode="-" horiz-adv-x="845" d="M139 575v91h568v-91h-568z" />
<glyph unicode="." horiz-adv-x="444" d="M139 0v168h166v-168h-166z" />
<glyph unicode="/" horiz-adv-x="815" d="M70 0l573 1393h102l-573 -1393h-102z" />
<glyph unicode="0" horiz-adv-x="1294" d="M106 696q0 211 62 372t185.5 253t293.5 92t293.5 -92t185.5 -253t62 -372t-62 -371.5t-185.5 -252.5t-293.5 -92t-293.5 92t-185.5 252.5t-62 371.5zM213 696q0 -281 109.5 -447.5t324.5 -166.5t324.5 166.5t109.5 447.5q0 184 -45.5 319.5t-144.5 215.5t-244 80 t-244 -80t-144.5 -215.5t-45.5 -319.5z" />
<glyph unicode="1" horiz-adv-x="692" d="M12 1163l396 230h92v-1393h-103v1278l-342 -201z" />
<glyph unicode="2" horiz-adv-x="1079" d="M74 0v80q35 76 98.5 149t134.5 131.5t149.5 118t149 117.5t127.5 118.5t91 133.5t34 151q0 146 -89 229t-251 83q-250 0 -330 -256l-92 39q19 60 51 112t81.5 101t124 77.5t165.5 28.5q203 0 325 -113.5t122 -300.5q0 -88 -35 -171t-93.5 -150t-130 -129.5t-149 -119.5 t-146 -109.5t-125 -110t-81.5 -111.5h782v-98h-913z" />
<glyph unicode="3" horiz-adv-x="1132" d="M55 215l72 70q48 -59 96.5 -100t127 -72t169.5 -31q177 0 292.5 86t115.5 229q0 135 -100 217t-298 82h-118v99h118q152 0 238 75.5t86 180.5q0 87 -49 147.5t-120.5 86.5t-156.5 26q-105 0 -193 -43.5t-134 -124.5l-72 63q59 93 162.5 150t236.5 57q191 0 312 -96.5 t121 -265.5q0 -95 -53 -172t-144 -121q125 -38 197.5 -135t72.5 -224q0 -185 -144.5 -302t-369.5 -117q-86 0 -161 21t-132.5 59.5t-96 74t-75.5 80.5z" />
<glyph unicode="4" horiz-adv-x="1193" d="M33 401v86l749 906h123v-893h244v-99h-244v-401h-102v401h-770zM174 500h629v760z" />
<glyph unicode="5" horiz-adv-x="1124" d="M59 215l72 70q75 -93 167 -148t224 -55q176 0 294 105.5t118 283.5q0 173 -103 271t-270 98q-108 0 -188 -31t-154 -96l-55 20l72 660h718v-99h-626l-49 -428q136 76 282 76q208 0 343.5 -126t135.5 -345q0 -216 -149 -353.5t-369 -137.5q-70 0 -133.5 15t-110 37.5 t-90.5 56t-72 62t-57 64.5z" />
<glyph unicode="6" horiz-adv-x="1239" d="M106 662q0 352 160 551.5t430 199.5q145 0 255 -66t177 -173l-77 -60q-57 93 -148.5 145t-206.5 52q-221 0 -351.5 -170.5t-135.5 -458.5q57 119 173 195.5t257 76.5q135 0 249.5 -63.5t181.5 -176t67 -247.5q0 -208 -145 -347.5t-353 -139.5q-255 0 -394 183t-139 499z M252 467q0 -159 109.5 -272t277.5 -113q171 0 281 113t110 272t-110 272t-281 113q-168 0 -277.5 -113t-109.5 -272z" />
<glyph unicode="7" horiz-adv-x="960" d="M29 1294v99h909v-90l-633 -1303h-115v6l635 1288h-796z" />
<glyph unicode="8" horiz-adv-x="1241" d="M94 397q0 130 83 235t212 140q-196 83 -196 291q0 150 116.5 250t311.5 100t311.5 -100t116.5 -250q0 -208 -197 -291q129 -35 212 -140t83 -235q0 -186 -142 -301.5t-384 -115.5q-243 0 -385 115.5t-142 301.5zM201 397q0 -140 113 -227.5t307 -87.5q193 0 306 87.5 t113 227.5t-113 228t-306 88t-306.5 -88t-113.5 -228zM299 1063q0 -112 93 -180t229 -68t228.5 68t92.5 180q0 114 -92 181t-229 67t-229.5 -67.5t-92.5 -180.5z" />
<glyph unicode="9" horiz-adv-x="1239" d="M102 926q0 208 145 347.5t353 139.5q255 0 394 -183t139 -499q0 -352 -160 -551.5t-430 -199.5q-145 0 -255 66t-177 173l77 60q57 -93 148.5 -145t206.5 -52q221 0 351.5 170.5t135.5 458.5q-57 -120 -173.5 -196.5t-256.5 -76.5q-135 0 -249.5 64t-181.5 176.5 t-67 247.5zM209 926q0 -159 110 -272t281 -113q168 0 277.5 113t109.5 272t-109.5 272t-277.5 113q-171 0 -281 -113t-110 -272z" />
<glyph unicode=":" horiz-adv-x="440" d="M139 0v164h162v-164h-162zM139 831v164h162v-164h-162z" />
<glyph unicode=";" horiz-adv-x="446" d="M141 831v164h162v-164h-162zM143 0v162h162v-142l-76 -329h-86l72 309h-72z" />
<glyph unicode="&#x3c;" d="M125 580v82l922 430v-99l-809 -372l809 -373v-98z" />
<glyph unicode="=" d="M154 328v90h921v-90h-921zM154 819v90h921v-90h-921z" />
<glyph unicode="&#x3e;" d="M182 150v98l809 373l-809 372v99l922 -430v-82z" />
<glyph unicode="?" horiz-adv-x="905" d="M66 1122q27 123 126.5 207t256.5 84q158 0 264 -98.5t106 -255.5q0 -97 -42 -170.5t-111 -138.5l-101 -93q-76 -70 -98.5 -112t-22.5 -117v-25h-94q-8 32 -8 54q0 83 35 143.5t125 142.5l100 93q111 102 111 221q0 113 -75 183.5t-189 70.5q-120 0 -194 -57.5t-95 -157.5 zM315 0v168h166v-168h-166z" />
<glyph unicode="@" horiz-adv-x="1964" d="M92 545q0 200 71 372t193.5 291t291 186.5t358.5 67.5q241 0 436.5 -104.5t307.5 -290.5t112 -416q0 -112 -23 -207t-61 -160t-87.5 -111t-101 -67.5t-102.5 -21.5q-84 0 -138 41.5t-71 122.5q-60 -78 -145.5 -121t-188.5 -43q-185 0 -309.5 130t-124.5 331t124.5 331 t309.5 130q99 0 183.5 -41t144.5 -115v141h98v-682q0 -61 32 -94t85 -33q47 0 93 27t87 80.5t66.5 147.5t25.5 214q0 201 -99.5 364.5t-272 256t-381.5 92.5q-165 0 -313.5 -60.5t-258.5 -166.5t-174.5 -260t-64.5 -332t64.5 -329t175 -252.5t258.5 -158.5t313 -57 q193 0 350 88l45 -88q-182 -98 -395 -98q-150 0 -287.5 39.5t-251.5 116.5t-198 184t-130.5 249.5t-46.5 305.5zM612 545q0 -162 95 -262.5t237 -100.5q116 0 203 55t125 146v324q-37 91 -124.5 145.5t-203.5 54.5q-142 0 -237 -100.5t-95 -261.5z" />
<glyph unicode="A" horiz-adv-x="1339" d="M35 0l583 1393h103l584 -1393h-113l-158 381h-729l-158 -381h-112zM346 479h647l-323 778z" />
<glyph unicode="B" horiz-adv-x="1341" d="M201 0v1393h493q217 0 330 -97t113 -268q0 -97 -49 -172.5t-138 -118.5q297 -71 297 -352q0 -176 -121.5 -280.5t-349.5 -104.5h-575zM303 98h467q185 0 278 75t93 212q0 136 -93 210.5t-278 74.5h-467v-572zM303 768h385q169 0 255.5 68t86.5 194q0 127 -86.5 195.5 t-255.5 68.5h-385v-526z" />
<glyph unicode="C" horiz-adv-x="1478" d="M102 696q0 196 88 360t246 260.5t352 96.5q203 0 365.5 -103.5t247.5 -277.5l-90 -49q-69 151 -207 239.5t-316 88.5q-170 0 -302.5 -81t-204.5 -221t-72 -313t72 -312.5t204.5 -220.5t302.5 -81q178 0 316 88.5t207 239.5l90 -50q-85 -174 -247.5 -277t-365.5 -103 q-194 0 -352 96.5t-246 260t-88 359.5z" />
<glyph unicode="D" horiz-adv-x="1466" d="M201 0v1393h495q140 0 260.5 -46.5t210.5 -133t141.5 -220t51.5 -297.5t-51.5 -297.5t-141.5 -219.5t-210.5 -132.5t-260.5 -46.5h-495zM303 98h381q260 0 414.5 155t154.5 443t-154.5 443t-414.5 155h-381v-1196z" />
<glyph unicode="E" horiz-adv-x="1220" d="M201 0v1393h903v-99h-801v-542h711v-99h-711v-555h801v-98h-903z" />
<glyph unicode="F" horiz-adv-x="1150" d="M201 0v1393h882v-99h-780v-549h711v-98h-711v-647h-102z" />
<glyph unicode="G" horiz-adv-x="1501" d="M102 696q0 196 88 360t246 260.5t352 96.5t345 -90t241 -250l-82 -55q-74 136 -205 214.5t-299 78.5q-170 0 -302.5 -81t-204.5 -221t-72 -313t72.5 -312.5t207 -220.5t306.5 -81q138 0 268 44.5t209 117.5v391h-408v98h510v-540q-258 -213 -579 -213q-148 0 -278 56.5 t-220.5 153t-142.5 228t-52 278.5z" />
<glyph unicode="H" horiz-adv-x="1529" d="M201 0v1393h102v-641h924v641h102v-1393h-102v653h-924v-653h-102z" />
<glyph unicode="I" horiz-adv-x="503" d="M201 0v1393h102v-1393h-102z" />
<glyph unicode="J" horiz-adv-x="1116" d="M29 236l77 61q48 -95 134.5 -155t210.5 -60q177 0 278.5 115t101.5 346v850h103v-856q0 -262 -135 -409.5t-348 -147.5q-76 0 -145 23t-121 62t-89.5 81t-66.5 90z" />
<glyph unicode="K" horiz-adv-x="1265" d="M201 0v1393h102v-795l784 795h136v-9l-574 -577l600 -801v-6h-131l-545 729l-270 -272v-457h-102z" />
<glyph unicode="L" horiz-adv-x="1118" d="M201 0v1393h102v-1295h764v-98h-866z" />
<glyph unicode="M" horiz-adv-x="1837" d="M201 0v1393h137l580 -1262l581 1262h137v-1393h-102v1231l-565 -1231h-101l-565 1231v-1231h-102z" />
<glyph unicode="N" horiz-adv-x="1550" d="M201 0v1393h92l954 -1217v1217h103v-1393h-93l-954 1217v-1217h-102z" />
<glyph unicode="O" horiz-adv-x="1576" d="M102 696q0 196 88 360t246 260.5t352 96.5q146 0 274.5 -57t218.5 -153.5t142 -228.5t52 -278q0 -196 -88 -359.5t-246.5 -260t-352.5 -96.5t-352 96.5t-246 260t-88 359.5zM209 696q0 -173 72 -312.5t204.5 -220.5t302.5 -81t303 81t205 220.5t72 312.5t-72 313 t-205 221t-303 81t-302.5 -81t-204.5 -221t-72 -313z" />
<glyph unicode="P" horiz-adv-x="1236" d="M201 0v1393h512q218 0 335 -107t117 -293t-117 -291.5t-335 -105.5h-410v-596h-102zM303 694h404q352 0 352 299q0 301 -352 301h-404v-600z" />
<glyph unicode="Q" horiz-adv-x="1576" d="M102 696q0 196 88 360t246 260.5t352 96.5q146 0 274.5 -57t218.5 -153.5t142 -228.5t52 -278q0 -185 -79 -341.5t-218 -254.5l284 -387l-84 -59l-284 395q-141 -69 -306 -69q-194 0 -352 96.5t-246 260t-88 359.5zM209 696q0 -173 72 -312.5t204.5 -220.5t302.5 -81 t303 81t205 220.5t72 312.5t-72 313t-205 221t-303 81t-302.5 -81t-204.5 -221t-72 -313z" />
<glyph unicode="R" horiz-adv-x="1345" d="M201 0v1393h532q208 0 329.5 -101t121.5 -282q0 -161 -97 -258.5t-268 -118.5l522 -627v-6h-133l-514 629h-391v-629h-102zM303 727h424q172 0 261 72t89 211t-89 211.5t-261 72.5h-424v-567z" />
<glyph unicode="S" horiz-adv-x="1198" d="M57 313l84 58q31 -59 71.5 -108t96.5 -91t131.5 -66t163.5 -24q185 0 288 91.5t103 227.5q0 117 -88.5 186.5t-234.5 92.5l-148 25q-166 27 -263 117t-97 233q0 69 30.5 133t86 114.5t143.5 80.5t194 30q153 0 269.5 -64.5t179.5 -174.5l-84 -58q-124 195 -365 195 q-157 0 -252.5 -73.5t-95.5 -182.5q0 -104 72 -166t193 -80l151 -25q199 -32 307.5 -128t108.5 -255q0 -86 -34 -162.5t-96 -134t-157 -91t-211 -33.5q-104 0 -194 28.5t-156 78t-113.5 105t-83.5 121.5z" />
<glyph unicode="T" horiz-adv-x="1126" d="M51 1294v99h1024v-99h-461v-1294h-102v1294h-461z" />
<glyph unicode="U" horiz-adv-x="1454" d="M182 578v815h103v-803q0 -240 115.5 -374t326.5 -134t326.5 134t115.5 374v803h103v-815q0 -270 -148.5 -434t-396.5 -164t-396.5 164t-148.5 434z" />
<glyph unicode="V" horiz-adv-x="1339" d="M35 1393h112l523 -1258l522 1258h113l-584 -1393h-103z" />
<glyph unicode="W" horiz-adv-x="1988" d="M47 1393h113l358 -1237l426 1237h100l426 -1237l359 1237h113l-420 -1393h-103l-426 1233l-424 -1233h-102z" />
<glyph unicode="X" horiz-adv-x="1249" d="M12 0v6l543 725l-487 655v7h125l432 -586l432 586h125v-7l-488 -655l543 -725v-6h-125l-487 657l-488 -657h-125z" />
<glyph unicode="Y" horiz-adv-x="1253" d="M37 1386v7h119l471 -672l471 672h119v-7l-539 -770v-616h-103v616z" />
<glyph unicode="Z" horiz-adv-x="1118" d="M59 0v88l838 1206h-801v99h932v-88l-838 -1207h861v-98h-992z" />
<glyph unicode="[" horiz-adv-x="567" d="M190 -340v1733h312v-90h-209v-1553h209v-90h-312z" />
<glyph unicode="\" horiz-adv-x="815" d="M70 1393h102l573 -1393h-102z" />
<glyph unicode="]" horiz-adv-x="567" d="M66 -250h208v1553h-208v90h311v-1733h-311v90z" />
<glyph unicode="^" d="M188 762v6l390 625h73l389 -625v-6h-102l-324 528l-323 -528h-103z" />
<glyph unicode="_" horiz-adv-x="1024" d="M0 -135h1024v-90h-1024v90z" />
<glyph unicode="`" d="M614 1483v6h113l137 -303v-6h-82z" />
<glyph unicode="a" horiz-adv-x="1216" d="M94 498q0 226 141 372t355 146q114 0 208 -49t158 -138v166h99v-995h-99v164q-64 -88 -158 -136t-208 -48q-214 0 -355 146t-141 372zM197 498q0 -189 113 -304.5t280 -115.5q125 0 223 61.5t143 161.5v391q-45 102 -143 164t-223 62q-167 0 -280 -115.5t-113 -304.5z " />
<glyph unicode="b" horiz-adv-x="1216" d="M162 0v1454h98v-625q64 89 158.5 138t208.5 49q213 0 354 -146t141 -372t-141 -372t-354 -146q-114 0 -208.5 48t-158.5 136v-164h-98zM260 301q45 -100 143.5 -161.5t223.5 -61.5q167 0 280 115.5t113 304.5t-113 304.5t-280 115.5q-125 0 -223.5 -62t-143.5 -164v-391z " />
<glyph unicode="c" horiz-adv-x="1105" d="M94 498q0 226 141 372t355 146q144 0 259 -69t177 -189l-88 -49q-49 99 -141 154t-207 55q-168 0 -280.5 -115t-112.5 -305t112.5 -305t280.5 -115q115 0 207 55t141 154l88 -49q-62 -120 -177 -189t-259 -69q-214 0 -355 146t-141 372z" />
<glyph unicode="d" horiz-adv-x="1216" d="M94 498q0 226 141 372t355 146q114 0 208 -49t158 -138v625h99v-1454h-99v164q-64 -88 -158 -136t-208 -48q-214 0 -355 146t-141 372zM197 498q0 -189 113 -304.5t280 -115.5q125 0 223 61.5t143 161.5v391q-45 102 -143 164t-223 62q-167 0 -280 -115.5t-113 -304.5z " />
<glyph unicode="e" horiz-adv-x="1132" d="M96 498q0 228 132 373t345 145q138 0 248 -67.5t169 -180t59 -246.5q0 -31 -5 -61h-845q10 -176 115 -279.5t264 -103.5q113 0 211 54t161 153l80 -58q-173 -247 -452 -247q-213 0 -347.5 145t-134.5 373zM201 551h741q-7 162 -113 264.5t-256 102.5q-154 0 -255.5 -99.5 t-116.5 -267.5z" />
<glyph unicode="f" horiz-adv-x="608" d="M45 905v90h182v166q0 138 76.5 219.5t218.5 81.5q31 0 47 -2v-88h-16q-123 0 -175 -51t-52 -160v-166h243v-90h-243v-905h-99v905h-182z" />
<glyph unicode="g" horiz-adv-x="1185" d="M94 518q0 219 133.5 358.5t345.5 139.5q222 0 353 -180v159h98v-911q0 -118 -37 -214.5t-100 -159t-146.5 -96.5t-177.5 -34q-148 0 -264 62t-182 184l82 57q54 -100 150 -152.5t212 -52.5q160 0 262.5 108t102.5 298v117q-131 -181 -353 -181q-212 0 -345.5 139.5 t-133.5 358.5zM197 518q0 -176 106.5 -287.5t271.5 -111.5q120 0 213.5 61t137.5 162v350q-44 102 -137.5 164t-213.5 62q-165 0 -271.5 -112t-106.5 -288z" />
<glyph unicode="h" horiz-adv-x="1167" d="M162 0v1454h98v-631q46 78 134.5 135.5t211.5 57.5q193 0 302.5 -114.5t109.5 -328.5v-573h-98v563q0 172 -84 263.5t-234 91.5q-75 0 -139.5 -26t-105 -65.5t-65 -77.5t-32.5 -71v-678h-98z" />
<glyph unicode="i" horiz-adv-x="421" d="M162 0v995h98v-995h-98zM162 1227v227h98v-227h-98z" />
<glyph unicode="j" horiz-adv-x="421" d="M2 -342q87 64 123.5 136t36.5 173v1028h98v-1028q0 -138 -49.5 -229.5t-153.5 -159.5zM162 1227v227h98v-227h-98z" />
<glyph unicode="k" horiz-adv-x="1011" d="M162 0v1454h98v-987l561 528h129v-8l-426 -393l496 -588v-6h-125l-442 528l-193 -180v-348h-98z" />
<glyph unicode="l" horiz-adv-x="421" d="M162 0v1454h98v-1454h-98z" />
<glyph unicode="m" horiz-adv-x="1916" d="M162 0v995h98v-166q45 76 133 131.5t211 55.5q132 0 227 -56t142 -163q43 91 150 155t235 64q193 0 301 -114.5t108 -328.5v-573h-98v563q0 173 -82.5 264t-232.5 91q-128 0 -218.5 -68.5t-121.5 -171.5v-80v-25v-573h-99v563q0 173 -82.5 264t-232.5 91 q-128 0 -218.5 -68.5t-121.5 -171.5v-678h-98z" />
<glyph unicode="n" horiz-adv-x="1167" d="M162 0v995h98v-166q45 76 134 131.5t212 55.5q193 0 302.5 -114.5t109.5 -328.5v-573h-98v563q0 172 -84 263.5t-234 91.5q-128 0 -219.5 -69t-122.5 -171v-678h-98z" />
<glyph unicode="o" horiz-adv-x="1179" d="M94 498q0 226 141 372t355 146q213 0 354 -146t141 -372t-141 -372t-354 -146q-214 0 -355 146t-141 372zM197 498q0 -189 113 -304.5t280 -115.5t280 115.5t113 304.5t-113 304.5t-280 115.5t-280 -115.5t-113 -304.5z" />
<glyph unicode="p" horiz-adv-x="1216" d="M162 -401v1396h98v-166q64 89 158 138t209 49q213 0 354 -146t141 -372t-141 -372t-354 -146q-115 0 -209 48t-158 136v-565h-98zM260 301q45 -101 143 -162t224 -61q167 0 280 115.5t113 304.5t-113 304.5t-280 115.5q-126 0 -224 -62t-143 -164v-391z" />
<glyph unicode="q" horiz-adv-x="1216" d="M94 498q0 226 141 372t355 146q115 0 208.5 -49t157.5 -138v166h99v-1396h-99v565q-64 -88 -157.5 -136t-208.5 -48q-214 0 -355 146t-141 372zM197 498q0 -189 113 -304.5t280 -115.5q126 0 223.5 61t142.5 162v391q-45 102 -142.5 164t-223.5 62q-167 0 -280 -115.5 t-113 -304.5z" />
<glyph unicode="r" horiz-adv-x="661" d="M162 0v995h98v-190q45 92 134.5 151.5t215.5 59.5h13v-103q-133 -6 -226 -72t-137 -186v-655h-98z" />
<glyph unicode="s" horiz-adv-x="948" d="M55 207l80 63q50 -84 139 -138t197 -54q127 0 210 54.5t83 158.5q0 75 -65.5 121.5t-184.5 64.5l-86 12q-134 20 -211.5 82.5t-77.5 173.5t90 191t252 80q106 0 195.5 -47t146.5 -127l-80 -64q-103 140 -262 140q-115 0 -177 -50.5t-62 -122.5q0 -129 200 -155l86 -12 q160 -22 249 -94.5t89 -192.5q0 -134 -109.5 -222.5t-285.5 -88.5q-136 0 -245.5 65.5t-170.5 161.5z" />
<glyph unicode="t" horiz-adv-x="634" d="M41 905v90h182v262h99v-262h264v-90h-264v-590q0 -127 56.5 -178t190.5 -51h17v-88q-24 -4 -47 -4q-157 0 -236.5 77.5t-79.5 239.5v594h-182z" />
<glyph unicode="u" horiz-adv-x="1167" d="M150 422v573h98v-563q0 -172 83.5 -263t233.5 -91q128 0 219.5 68.5t122.5 170.5v678h99v-995h-99v166q-45 -76 -134 -131t-212 -55q-193 0 -302 114t-109 328z" />
<glyph unicode="v" horiz-adv-x="1032" d="M41 995h106l369 -858l369 858h106l-432 -995h-86z" />
<glyph unicode="w" horiz-adv-x="1605" d="M47 995h105l284 -858l322 858h90l321 -858l285 858h105l-342 -995h-91l-323 864l-324 -864h-90z" />
<glyph unicode="x" horiz-adv-x="974" d="M43 0v6l377 498l-367 483v8h121l313 -422l314 422h121v-8l-367 -483l377 -498v-6h-121l-324 434l-323 -434h-121z" />
<glyph unicode="y" horiz-adv-x="1019" d="M43 995h107l376 -788l353 788h106l-625 -1396h-106l221 495z" />
<glyph unicode="z" horiz-adv-x="913" d="M57 0v78l639 827h-592v90h721v-77l-641 -828h660v-90h-787z" />
<glyph unicode="{" horiz-adv-x="616" d="M59 481v90h103q37 0 62.5 31t25.5 78v485q0 114 59.5 174t159.5 60q49 0 76 -6v-86h-45q-71 0 -109.5 -35t-38.5 -119v-467q0 -138 -100 -160q100 -23 100 -159v-467q0 -84 38.5 -119t109.5 -35h45v-86q-27 -6 -76 -6q-100 0 -159.5 59.5t-59.5 173.5v486 q0 47 -25.5 77.5t-62.5 30.5h-103z" />
<glyph unicode="|" horiz-adv-x="462" d="M186 -340v1794h90v-1794h-90z" />
<glyph unicode="}" horiz-adv-x="614" d="M72 -254h45q71 0 109 35t38 119v467q0 137 101 159q-101 23 -101 160v467q0 84 -38 119t-109 35h-45v86q27 6 75 6q100 0 160 -60t60 -174v-485q0 -47 25.5 -78t62.5 -31h102v-90h-102q-37 0 -62.5 -30.5t-25.5 -77.5v-486q0 -114 -60 -173.5t-160 -59.5q-48 0 -75 6v86z " />
<glyph unicode="~" d="M156 539v94q116 82 239 82q84 0 232 -45t207 -45q113 0 237 86h6v-95q-111 -81 -237 -81q-82 0 -230.5 45t-208.5 45q-109 0 -239 -86h-6z" />
<glyph unicode="&#xa1;" horiz-adv-x="436" d="M135 827v168h166v-168h-166zM160 -397l24 989h66l24 -989h-114z" />
<glyph unicode="&#xa2;" d="M156 700q0 215 128 359t326 158v217h99v-217q124 -13 223 -81t155 -175l-88 -50q-42 87 -118 140t-172 65v-831q96 12 172 64.5t118 139.5l88 -49q-56 -107 -155 -175t-223 -81v-225h-99v225q-198 14 -326 157.5t-128 358.5zM258 700q0 -178 99 -290.5t253 -126.5v835 q-154 -14 -253 -126.5t-99 -291.5z" />
<glyph unicode="&#xa3;" d="M164 625v98h155q-67 168 -67 315q0 165 111.5 270t295.5 105q138 0 245 -74.5t163 -208.5l-90 -49q-102 230 -318 230q-129 0 -215 -80t-86 -209q0 -21 2 -42.5t4.5 -37.5t9 -40.5t9.5 -35.5t12.5 -38t12 -33.5t15 -37t13.5 -34.5h445v-98h-408q31 -95 31 -183 q0 -171 -152 -344h703v-98h-840v88q42 46 62.5 70t48.5 62t40 67.5t21.5 70t9.5 86.5q0 81 -39 181h-194z" />
<glyph unicode="&#xa4;" d="M176 246l152 151q-70 92 -70 221q0 131 70 220l-152 153l66 66l153 -154q93 68 219 68q127 0 220 -68l153 154l66 -66l-154 -153q72 -91 72 -220q0 -127 -72 -221l154 -151l-66 -66l-153 154q-93 -68 -220 -68q-126 0 -219 68l-153 -154zM354 618q0 -115 73 -188.5 t187 -73.5t187 73.5t73 188.5t-73 189t-187 74t-187 -74t-73 -189z" />
<glyph unicode="&#xa5;" d="M106 1386v7h119l389 -627l390 627h118v-7l-444 -700h311v-98h-323v-180h323v-99h-323v-309h-103v309h-323v99h323v180h-323v98h309z" />
<glyph unicode="&#xa6;" horiz-adv-x="458" d="M184 -340v758h90v-758h-90zM184 698v756h90v-756h-90z" />
<glyph unicode="&#xa7;" horiz-adv-x="1083" d="M88 -27l82 60q54 -103 149 -169.5t234 -66.5q141 0 219 70t78 174q0 166 -270 213l-129 20q-155 24 -245.5 100.5t-90.5 198.5q0 76 43.5 146t126.5 123q-142 82 -142 254q0 130 105.5 223.5t286.5 93.5q138 0 243 -54t162 -147l-80 -59q-115 158 -325 158 q-129 0 -207 -61.5t-78 -151.5q0 -88 58.5 -141.5t154.5 -67.5l133 -19q189 -25 293 -107.5t104 -217.5q0 -80 -44.5 -149.5t-125.5 -116.5q133 -85 133 -236q0 -153 -108.5 -250.5t-294.5 -97.5q-88 0 -164.5 23.5t-133 65.5t-96.5 88t-71 101zM221 575q0 -83 66 -133.5 t176 -64.5l133 -19q74 -13 131 -32q78 33 119 90.5t41 126.5q0 172 -307 223l-129 20q-38 7 -66 15q-81 -37 -122.5 -97t-41.5 -129z" />
<glyph unicode="&#xa8;" d="M346 1227v227h98v-227h-98zM811 1227v227h98v-227h-98z" />
<glyph unicode="&#xa9;" horiz-adv-x="1753" d="M94 696q0 162 60.5 306t164.5 248t249.5 164.5t308.5 60.5t308 -60.5t249 -164.5t164.5 -248t60.5 -306t-60.5 -306t-164.5 -247.5t-249 -164t-308 -60.5q-218 0 -397.5 102.5t-282.5 281t-103 394.5zM197 696q0 -142 53 -268.5t143 -216.5t216.5 -142.5t267.5 -52.5 q190 0 345.5 89t244.5 245t89 346t-89 346t-244.5 245t-345.5 89q-141 0 -267.5 -52.5t-216.5 -142.5t-143 -216.5t-53 -268.5zM498 696q0 165 108 277t273 112q115 0 203.5 -52t136.5 -142l-82 -55q-36 71 -101.5 111t-154.5 40q-124 0 -200.5 -82.5t-76.5 -208.5 t76.5 -208t200.5 -82q89 0 154.5 40t101.5 111l82 -55q-49 -90 -137.5 -142.5t-202.5 -52.5q-165 0 -273 112t-108 277z" />
<glyph unicode="&#xaa;" horiz-adv-x="700" d="M115 1036q0 72 55 117t145 45q79 0 156 -45v39q0 60 -35 96.5t-104 36.5q-44 0 -78 -21t-47 -59l-74 37q22 53 76.5 88t128.5 35q105 0 162 -58t57 -161v-293h-84v55q-77 -67 -174 -67q-87 0 -135.5 44t-48.5 111zM203 1040q0 -36 29 -60t81 -24q89 0 158 66v63 q-67 39 -147 39q-61 0 -91 -23.5t-30 -60.5z" />
<glyph unicode="&#xab;" horiz-adv-x="1040" d="M90 600v33l324 348h110v-6l-325 -359l325 -358v-6h-110zM487 600v33l324 348h111v-6l-326 -359l326 -358v-6h-111z" />
<glyph unicode="&#xac;" d="M154 639v90h921v-360h-88v270h-833z" />
<glyph unicode="&#xad;" horiz-adv-x="845" d="M139 575v91h568v-91h-568z" />
<glyph unicode="&#xae;" horiz-adv-x="983" d="M96 1018q0 166 115 280.5t281 114.5t280.5 -114.5t114.5 -280.5t-114.5 -280.5t-280.5 -114.5t-281 114.5t-115 280.5zM186 1018q0 -129 88.5 -217t217.5 -88t217 88t88 217t-88 217t-217 88t-217.5 -88t-88.5 -217zM358 831v375h164q55 0 91 -32.5t36 -88.5 q0 -38 -19 -65t-52 -39l106 -143v-7h-106l-95 140h-34v-140h-91zM449 1051h71q17 0 28 9.5t11 24.5q0 17 -11 27t-28 10h-71v-71z" />
<glyph unicode="&#xaf;" d="M258 1288v90h619v-90h-619z" />
<glyph unicode="&#xb0;" horiz-adv-x="745" d="M102 1147q0 114 77 190t194 76t193.5 -76t76.5 -190t-76.5 -190t-193.5 -76t-194 76t-77 190zM193 1147q0 -76 50.5 -127t129.5 -51t129.5 51t50.5 127t-50.5 127t-129.5 51t-129.5 -51t-50.5 -127z" />
<glyph unicode="&#xb1;" d="M154 143v90h921v-90h-921zM154 770v90h415v397h90v-397h416v-90h-416v-354h-90v354h-415z" />
<glyph unicode="&#xb4;" d="M393 1180v6l137 303h113v-6l-168 -303h-82z" />
<glyph unicode="&#xb6;" horiz-adv-x="1105" d="M61 1071q0 151 89.5 235.5t236.5 86.5h223v-1733h-102v1088h-121q-146 0 -236 85t-90 238zM795 -340v1733h102v-1733h-102z" />
<glyph unicode="&#xb7;" horiz-adv-x="444" d="M139 535v167h166v-167h-166z" />
<glyph unicode="&#xb8;" d="M389 -315l35 73q55 -37 115 -37q57 0 87.5 28.5t30.5 76.5q0 65 -67 119t-168 55l178 16q69 -31 109.5 -86.5t40.5 -122.5q0 -78 -54 -126t-145 -48q-92 0 -162 52z" />
<glyph unicode="&#xba;" horiz-adv-x="733" d="M104 1143q0 112 72 187t191 75q117 0 189.5 -75.5t72.5 -186.5t-72.5 -186.5t-189.5 -75.5q-119 0 -191 75t-72 187zM195 1143q0 -80 49 -129t123 -49t123 49t49 129t-49 129t-123 49t-123 -49t-49 -129z" />
<glyph unicode="&#xbb;" horiz-adv-x="1040" d="M119 254v6l325 358l-325 359v6h110l324 -348v-33l-324 -348h-110zM516 254v6l326 358l-326 359v6h111l323 -348v-33l-323 -348h-111z" />
<glyph unicode="&#xbc;" horiz-adv-x="1374" d="M57 1266l236 127h74v-697h-95v590l-178 -96zM254 0l723 1393h100l-721 -1393h-102zM713 186v72l342 438h121v-430h122v-80h-122v-186h-95v186h-368zM825 266h256v326z" />
<glyph unicode="&#xbd;" horiz-adv-x="1474" d="M57 1266l236 127h74v-697h-95v590l-178 -96zM276 0l723 1393h101l-721 -1393h-103zM895 0v72q24 48 74 94.5t101 82t99.5 72t79.5 79t31 87.5q0 59 -39 95t-113 36q-112 0 -149 -120l-76 39q23 71 79 121.5t151 50.5q112 0 177.5 -60.5t65.5 -156.5q0 -59 -30.5 -111.5 t-78 -91t-96 -71.5t-94 -67.5t-63.5 -64.5h375v-86h-494z" />
<glyph unicode="&#xbe;" horiz-adv-x="1462" d="M66 801l59 65q80 -92 192 -92q80 0 131.5 34t51.5 93q0 56 -44 87.5t-134 31.5h-68v86h68q67 0 103 30.5t36 73.5q0 51 -39.5 78t-99.5 27q-108 0 -160 -76l-60 59q35 47 92 77t128 30q109 0 173 -50t64 -138q0 -44 -26 -83.5t-70 -62.5q64 -19 99.5 -65.5t35.5 -110.5 q0 -94 -79.5 -152.5t-201.5 -58.5q-148 0 -251 117zM367 0l723 1393h100l-721 -1393h-102zM811 186v72l342 438h121v-430h123v-80h-123v-186h-94v186h-369zM924 266h256v326z" />
<glyph unicode="&#xbf;" horiz-adv-x="880" d="M72 -63q0 97 42 170.5t111 138.5l101 92q76 70 98 111.5t22 117.5v25h95q8 -32 8 -53q0 -83 -35 -144.5t-125 -142.5l-100 -92q-111 -102 -111 -221q0 -113 75 -183.5t189 -70.5q120 0 194 57.5t95 157.5l94 -27q-27 -123 -126.5 -207t-256.5 -84q-158 0 -264 99 t-106 256zM410 827v168h165v-168h-165z" />
<glyph unicode="&#xc0;" horiz-adv-x="1339" d="M35 0l583 1393h103l584 -1393h-113l-158 381h-729l-158 -381h-112zM346 479h647l-323 778zM463 1839v6h112l138 -303v-6h-82z" />
<glyph unicode="&#xc1;" horiz-adv-x="1339" d="M35 0l583 1393h103l584 -1393h-113l-158 381h-729l-158 -381h-112zM346 479h647l-323 778zM627 1536v6l137 303h113v-6l-168 -303h-82z" />
<glyph unicode="&#xc2;" horiz-adv-x="1339" d="M35 0l583 1393h103l584 -1393h-113l-158 381h-729l-158 -381h-112zM346 479h647l-323 778zM352 1536v6l266 303h101l266 -303v-6h-111l-206 223l-205 -223h-111z" />
<glyph unicode="&#xc3;" horiz-adv-x="1339" d="M35 0l583 1393h103l584 -1393h-113l-158 381h-729l-158 -381h-112zM346 479h647l-323 778zM360 1618q26 69 75 106t110 37q53 0 100.5 -23.5t87.5 -47t76 -23.5q68 0 111 92l75 -43q-26 -68 -74 -103.5t-110 -35.5q-53 0 -100.5 23.5t-87.5 47t-76 23.5q-68 0 -111 -92z " />
<glyph unicode="&#xc4;" horiz-adv-x="1339" d="M35 0l583 1393h103l584 -1393h-113l-158 381h-729l-158 -381h-112zM346 479h647l-323 778zM387 1583v227h98v-227h-98zM852 1583v227h98v-227h-98z" />
<glyph unicode="&#xc5;" horiz-adv-x="1339" d="M35 0l563 1346q-64 24 -103.5 77.5t-39.5 124.5q0 93 65 154t160 61t160 -61t65 -154q0 -76 -46 -132t-118 -75l564 -1341h-113l-158 381h-729l-158 -381h-112zM346 479h647l-323 778zM545 1548q0 -57 38 -94t97 -37t97 37t38 94t-38 94t-97 37t-97 -37t-38 -94z" />
<glyph unicode="&#xc6;" horiz-adv-x="1878" d="M-18 0v6l892 1387h889v-99h-759v-542h669v-99h-669v-555h759v-98h-862v381h-561l-242 -381h-116zM403 479h498v781z" />
<glyph unicode="&#xc7;" horiz-adv-x="1478" d="M102 696q0 196 88 360t246 260.5t352 96.5q203 0 365.5 -103.5t247.5 -277.5l-90 -49q-69 151 -207 239.5t-316 88.5q-170 0 -302.5 -81t-204.5 -221t-72 -313t72 -312.5t204.5 -220.5t302.5 -81q178 0 316 88.5t207 239.5l90 -50q-76 -158 -218.5 -258.5t-322.5 -117.5 q92 -73 92 -177q0 -78 -53.5 -126t-144.5 -48q-92 0 -162 52l35 73q55 -37 114 -37q57 0 88 28.5t31 76.5q0 47 -36.5 90t-98.5 66q-179 15 -322 114t-222 256.5t-79 343.5z" />
<glyph unicode="&#xc8;" horiz-adv-x="1220" d="M201 0v1393h903v-99h-801v-542h711v-99h-711v-555h801v-98h-903zM444 1839v6h113l137 -303v-6h-82z" />
<glyph unicode="&#xc9;" horiz-adv-x="1220" d="M201 0v1393h903v-99h-801v-542h711v-99h-711v-555h801v-98h-903zM608 1536v6l137 303h113v-6l-168 -303h-82z" />
<glyph unicode="&#xca;" horiz-adv-x="1220" d="M201 0v1393h903v-99h-801v-542h711v-99h-711v-555h801v-98h-903zM334 1536v6l266 303h100l267 -303v-6h-111l-207 223l-205 -223h-110z" />
<glyph unicode="&#xcb;" horiz-adv-x="1220" d="M201 0v1393h903v-99h-801v-542h711v-99h-711v-555h801v-98h-903zM369 1583v227h98v-227h-98zM834 1583v227h98v-227h-98z" />
<glyph unicode="&#xcc;" horiz-adv-x="503" d="M45 1839v6h113l137 -303v-6h-82zM201 0v1393h102v-1393h-102z" />
<glyph unicode="&#xcd;" horiz-adv-x="503" d="M201 0v1393h102v-1393h-102zM209 1536v6l137 303h113v-6l-168 -303h-82z" />
<glyph unicode="&#xce;" horiz-adv-x="503" d="M-66 1536v6l267 303h100l266 -303v-6h-110l-207 223l-205 -223h-111zM201 0v1393h102v-1393h-102z" />
<glyph unicode="&#xcf;" horiz-adv-x="503" d="M-31 1583v227h99v-227h-99zM201 0v1393h102v-1393h-102zM434 1583v227h98v-227h-98z" />
<glyph unicode="&#xd0;" horiz-adv-x="1472" d="M39 653v99h168v641h495q140 0 260.5 -46.5t210.5 -133t141.5 -220t51.5 -297.5t-51.5 -297.5t-141.5 -219.5t-210.5 -132.5t-260.5 -46.5h-495v653h-168zM309 98h381q260 0 415 155t155 443t-155 443t-415 155h-381v-542h428v-99h-428v-555z" />
<glyph unicode="&#xd1;" horiz-adv-x="1550" d="M201 0v1393h92l954 -1217v1217h103v-1393h-93l-954 1217v-1217h-102zM467 1618q26 69 74.5 106t109.5 37q53 0 100.5 -23.5t87.5 -47t76 -23.5q68 0 111 92l76 -43q-26 -68 -74 -103.5t-110 -35.5q-53 0 -100.5 23.5t-88 47t-76.5 23.5q-67 0 -110 -92z" />
<glyph unicode="&#xd2;" horiz-adv-x="1576" d="M102 696q0 196 88 360t246 260.5t352 96.5q146 0 274.5 -57t218.5 -153.5t142 -228.5t52 -278q0 -196 -88 -359.5t-246.5 -260t-352.5 -96.5t-352 96.5t-246 260t-88 359.5zM209 696q0 -173 72 -312.5t204.5 -220.5t302.5 -81t303 81t205 220.5t72 312.5t-72 313 t-205 221t-303 81t-302.5 -81t-204.5 -221t-72 -313zM582 1839v6h112l137 -303v-6h-81z" />
<glyph unicode="&#xd3;" horiz-adv-x="1576" d="M102 696q0 196 88 360t246 260.5t352 96.5q146 0 274.5 -57t218.5 -153.5t142 -228.5t52 -278q0 -196 -88 -359.5t-246.5 -260t-352.5 -96.5t-352 96.5t-246 260t-88 359.5zM209 696q0 -173 72 -312.5t204.5 -220.5t302.5 -81t303 81t205 220.5t72 312.5t-72 313 t-205 221t-303 81t-302.5 -81t-204.5 -221t-72 -313zM745 1536v6l138 303h112v-6l-168 -303h-82z" />
<glyph unicode="&#xd4;" horiz-adv-x="1576" d="M102 696q0 196 88 360t246 260.5t352 96.5q146 0 274.5 -57t218.5 -153.5t142 -228.5t52 -278q0 -196 -88 -359.5t-246.5 -260t-352.5 -96.5t-352 96.5t-246 260t-88 359.5zM209 696q0 -173 72 -312.5t204.5 -220.5t302.5 -81t303 81t205 220.5t72 312.5t-72 313 t-205 221t-303 81t-302.5 -81t-204.5 -221t-72 -313zM471 1536v6l266 303h101l266 -303v-6h-111l-207 223l-204 -223h-111z" />
<glyph unicode="&#xd5;" horiz-adv-x="1576" d="M102 696q0 196 88 360t246 260.5t352 96.5q146 0 274.5 -57t218.5 -153.5t142 -228.5t52 -278q0 -196 -88 -359.5t-246.5 -260t-352.5 -96.5t-352 96.5t-246 260t-88 359.5zM209 696q0 -173 72 -312.5t204.5 -220.5t302.5 -81t303 81t205 220.5t72 312.5t-72 313 t-205 221t-303 81t-302.5 -81t-204.5 -221t-72 -313zM479 1618q26 69 75 106t110 37q53 0 100.5 -23.5t87.5 -47t76 -23.5q67 0 110 92l76 -43q-26 -68 -74 -103.5t-110 -35.5q-53 0 -100.5 23.5t-87.5 47t-76 23.5q-68 0 -111 -92z" />
<glyph unicode="&#xd6;" horiz-adv-x="1576" d="M102 696q0 196 88 360t246 260.5t352 96.5q146 0 274.5 -57t218.5 -153.5t142 -228.5t52 -278q0 -196 -88 -359.5t-246.5 -260t-352.5 -96.5t-352 96.5t-246 260t-88 359.5zM209 696q0 -173 72 -312.5t204.5 -220.5t302.5 -81t303 81t205 220.5t72 312.5t-72 313 t-205 221t-303 81t-302.5 -81t-204.5 -221t-72 -313zM506 1583v227h98v-227h-98zM971 1583v227h98v-227h-98z" />
<glyph unicode="&#xd7;" d="M242 311l309 307l-309 310l63 63l309 -309l310 309l63 -63l-309 -310l309 -307l-63 -65l-310 309l-309 -309z" />
<glyph unicode="&#xd8;" horiz-adv-x="1576" d="M102 696q0 196 88 360t246 260.5t352 96.5q165 0 310 -74l82 142h106v-6l-106 -185q138 -98 216.5 -254t78.5 -340q0 -196 -88 -359.5t-246.5 -260t-352.5 -96.5q-177 0 -319 77l-84 -145h-106v6l108 191q-133 98 -209 252t-76 335zM209 696q0 -157 60.5 -287t168.5 -214 l611 1056q-120 60 -261 60q-170 0 -302.5 -81t-204.5 -221t-72 -313zM518 143q125 -61 270 -61q170 0 303 81t205 220.5t72 312.5q0 160 -62.5 292t-175.5 216z" />
<glyph unicode="&#xd9;" horiz-adv-x="1454" d="M182 578v815h103v-803q0 -240 115.5 -374t326.5 -134t326.5 134t115.5 374v803h103v-815q0 -270 -148.5 -434t-396.5 -164t-396.5 164t-148.5 434zM520 1839v6h113l137 -303v-6h-82z" />
<glyph unicode="&#xda;" horiz-adv-x="1454" d="M182 578v815h103v-803q0 -240 115.5 -374t326.5 -134t326.5 134t115.5 374v803h103v-815q0 -270 -148.5 -434t-396.5 -164t-396.5 164t-148.5 434zM684 1536v6l137 303h113v-6l-168 -303h-82z" />
<glyph unicode="&#xdb;" horiz-adv-x="1454" d="M182 578v815h103v-803q0 -240 115.5 -374t326.5 -134t326.5 134t115.5 374v803h103v-815q0 -270 -148.5 -434t-396.5 -164t-396.5 164t-148.5 434zM410 1536v6l266 303h100l266 -303v-6h-110l-207 223l-205 -223h-110z" />
<glyph unicode="&#xdc;" horiz-adv-x="1454" d="M182 578v815h103v-803q0 -240 115.5 -374t326.5 -134t326.5 134t115.5 374v803h103v-815q0 -270 -148.5 -434t-396.5 -164t-396.5 164t-148.5 434zM444 1583v227h99v-227h-99zM909 1583v227h99v-227h-99z" />
<glyph unicode="&#xdd;" horiz-adv-x="1253" d="M37 1386v7h119l471 -672l471 672h119v-7l-539 -770v-616h-103v616zM586 1536v6l137 303h113v-6l-168 -303h-82z" />
<glyph unicode="&#xde;" horiz-adv-x="1200" d="M201 0v1393h102v-289h375q218 0 335 -106.5t117 -292.5t-117 -292t-335 -106h-375v-307h-102zM303 406h369q352 0 352 299q0 301 -352 301h-369v-600z" />
<glyph unicode="&#xdf;" horiz-adv-x="1206" d="M162 0v1083q0 173 107 282.5t288 109.5q183 0 289 -104t106 -251q0 -200 -166 -280q144 -38 237 -148.5t93 -267.5q0 -138 -66 -240.5t-172.5 -153t-236.5 -50.5q-89 0 -186 30l22 96q77 -28 164 -28q164 0 268.5 96t104.5 250q0 79 -31 146t-82 111t-115.5 68.5 t-132.5 24.5h-123v90h13q83 0 144.5 21.5t96 58.5t50.5 81t16 95q0 111 -77 183.5t-216 72.5q-138 0 -217.5 -80.5t-79.5 -210.5v-1085h-98z" />
<glyph unicode="&#xe0;" horiz-adv-x="1216" d="M94 498q0 226 141 372t355 146q114 0 208 -49t158 -138v166h99v-995h-99v164q-64 -88 -158 -136t-208 -48q-214 0 -355 146t-141 372zM197 498q0 -189 113 -304.5t280 -115.5q125 0 223 61.5t143 161.5v391q-45 102 -143 164t-223 62q-167 0 -280 -115.5t-113 -304.5z M408 1483v6h112l137 -303v-6h-82z" />
<glyph unicode="&#xe1;" horiz-adv-x="1216" d="M94 498q0 226 141 372t355 146q114 0 208 -49t158 -138v166h99v-995h-99v164q-64 -88 -158 -136t-208 -48q-214 0 -355 146t-141 372zM197 498q0 -189 113 -304.5t280 -115.5q125 0 223 61.5t143 161.5v391q-45 102 -143 164t-223 62q-167 0 -280 -115.5t-113 -304.5z M571 1180v6l138 303h112v-6l-168 -303h-82z" />
<glyph unicode="&#xe2;" horiz-adv-x="1216" d="M94 498q0 226 141 372t355 146q114 0 208 -49t158 -138v166h99v-995h-99v164q-64 -88 -158 -136t-208 -48q-214 0 -355 146t-141 372zM197 498q0 -189 113 -304.5t280 -115.5q125 0 223 61.5t143 161.5v391q-45 102 -143 164t-223 62q-167 0 -280 -115.5t-113 -304.5z M297 1180v6l266 303h101l266 -303v-6h-111l-207 223l-204 -223h-111z" />
<glyph unicode="&#xe3;" horiz-adv-x="1216" d="M94 498q0 226 141 372t355 146q114 0 208 -49t158 -138v166h99v-995h-99v164q-64 -88 -158 -136t-208 -48q-214 0 -355 146t-141 372zM197 498q0 -189 113 -304.5t280 -115.5q125 0 223 61.5t143 161.5v391q-45 102 -143 164t-223 62q-167 0 -280 -115.5t-113 -304.5z M305 1262q26 69 74.5 106t109.5 37q53 0 100.5 -23.5t88 -47t76.5 -23.5q67 0 110 92l76 -43q-26 -68 -74 -103.5t-110 -35.5q-53 0 -100.5 23.5t-87.5 47t-76 23.5q-68 0 -111 -92z" />
<glyph unicode="&#xe4;" horiz-adv-x="1216" d="M94 498q0 226 141 372t355 146q114 0 208 -49t158 -138v166h99v-995h-99v164q-64 -88 -158 -136t-208 -48q-214 0 -355 146t-141 372zM197 498q0 -189 113 -304.5t280 -115.5q125 0 223 61.5t143 161.5v391q-45 102 -143 164t-223 62q-167 0 -280 -115.5t-113 -304.5z M332 1227v227h98v-227h-98zM797 1227v227h98v-227h-98z" />
<glyph unicode="&#xe5;" horiz-adv-x="1216" d="M94 498q0 226 141 372t355 146q114 0 208 -49t158 -138v166h99v-995h-99v164q-64 -88 -158 -136t-208 -48q-214 0 -355 146t-141 372zM197 498q0 -189 113 -304.5t280 -115.5q125 0 223 61.5t143 161.5v391q-45 102 -143 164t-223 62q-167 0 -280 -115.5t-113 -304.5z M389 1341q0 93 65 154t160 61t160.5 -61t65.5 -154t-65.5 -154t-160.5 -61t-160 61t-65 154zM479 1341q0 -57 38 -94t97 -37t97.5 37t38.5 94t-38.5 94.5t-97.5 37.5q-58 0 -96.5 -37.5t-38.5 -94.5z" />
<glyph unicode="&#xe6;" horiz-adv-x="1810" d="M82 268q0 129 98 210t277 81h323v80q-2 123 -78 201t-221 78q-184 0 -291 -162l-69 73q77 97 162.5 142t205.5 45q130 0 224.5 -61t132.5 -167q63 108 166.5 168t236.5 60q139 0 249 -67.5t169 -180t59 -246.5q0 -33 -4 -53h-845q9 -179 113.5 -285t264.5 -106 q113 0 211 54t162 153l80 -58q-173 -247 -453 -247q-126 0 -227.5 53t-165.5 149q-177 -202 -424 -202q-162 0 -259 82.5t-97 205.5zM184 276q0 -86 67.5 -142t205.5 -56q208 0 358 190q-38 90 -41 201h-303q-146 0 -216.5 -51t-70.5 -142zM879 559h741q-10 159 -115.5 259 t-255.5 100q-151 0 -252 -97t-118 -262z" />
<glyph unicode="&#xe7;" horiz-adv-x="1105" d="M94 498q0 226 141 372t355 146q144 0 259 -69t177 -189l-88 -49q-49 99 -141 154t-207 55q-168 0 -280.5 -115t-112.5 -305t112.5 -305t280.5 -115q115 0 207 55t141 154l88 -49q-54 -105 -148.5 -171t-215.5 -81q94 -74 94 -179q0 -78 -54 -126t-145 -48q-92 0 -162 52 l35 73q55 -37 115 -37q57 0 88 28.5t31 76.5q0 47 -37.5 91t-100.5 67q-35 3 -77 16h-21h12q-156 46 -251 180t-95 318z" />
<glyph unicode="&#xe8;" horiz-adv-x="1132" d="M96 498q0 228 132 373t345 145q138 0 248 -67.5t169 -180t59 -246.5q0 -31 -5 -61h-845q10 -176 115 -279.5t264 -103.5q113 0 211 54t161 153l80 -58q-173 -247 -452 -247q-213 0 -347.5 145t-134.5 373zM201 551h741q-7 162 -113 264.5t-256 102.5q-154 0 -255.5 -99.5 t-116.5 -267.5zM367 1483v6h112l137 -303v-6h-81z" />
<glyph unicode="&#xe9;" horiz-adv-x="1132" d="M96 498q0 228 132 373t345 145q138 0 248 -67.5t169 -180t59 -246.5q0 -31 -5 -61h-845q10 -176 115 -279.5t264 -103.5q113 0 211 54t161 153l80 -58q-173 -247 -452 -247q-213 0 -347.5 145t-134.5 373zM201 551h741q-7 162 -113 264.5t-256 102.5q-154 0 -255.5 -99.5 t-116.5 -267.5zM530 1180v6l138 303h112v-6l-168 -303h-82z" />
<glyph unicode="&#xea;" horiz-adv-x="1132" d="M96 498q0 228 132 373t345 145q138 0 248 -67.5t169 -180t59 -246.5q0 -31 -5 -61h-845q10 -176 115 -279.5t264 -103.5q113 0 211 54t161 153l80 -58q-173 -247 -452 -247q-213 0 -347.5 145t-134.5 373zM201 551h741q-7 162 -113 264.5t-256 102.5q-154 0 -255.5 -99.5 t-116.5 -267.5zM256 1180v6l266 303h101l266 -303v-6h-111l-207 223l-204 -223h-111z" />
<glyph unicode="&#xeb;" horiz-adv-x="1132" d="M96 498q0 228 132 373t345 145q138 0 248 -67.5t169 -180t59 -246.5q0 -31 -5 -61h-845q10 -176 115 -279.5t264 -103.5q113 0 211 54t161 153l80 -58q-173 -247 -452 -247q-213 0 -347.5 145t-134.5 373zM201 551h741q-7 162 -113 264.5t-256 102.5q-154 0 -255.5 -99.5 t-116.5 -267.5zM291 1227v227h98v-227h-98zM756 1227v227h98v-227h-98z" />
<glyph unicode="&#xec;" horiz-adv-x="421" d="M4 1483v6h113l137 -303v-6h-82zM162 0v995h98v-995h-98z" />
<glyph unicode="&#xed;" horiz-adv-x="421" d="M162 0v995h98v-995h-98zM168 1180v6l137 303h113v-6l-168 -303h-82z" />
<glyph unicode="&#xee;" horiz-adv-x="421" d="M-106 1180v6l266 303h100l266 -303v-6h-110l-207 223l-205 -223h-110zM162 0v995h98v-995h-98z" />
<glyph unicode="&#xef;" horiz-adv-x="421" d="M-72 1227v227h99v-227h-99zM162 0v995h98v-995h-98zM393 1227v227h99v-227h-99z" />
<glyph unicode="&#xf0;" horiz-adv-x="1165" d="M94 492q0 107 37.5 201t100.5 158.5t145.5 102t171.5 37.5q115 0 196.5 -34t147.5 -103q-78 172 -244 338l-264 -102l-31 84l224 86q-125 107 -248 188v6h137q109 -71 205 -158l248 97l30 -84l-207 -80q150 -155 236 -333t86 -357q0 -257 -135.5 -408t-347.5 -151 q-210 0 -349 144.5t-139 367.5zM197 487q0 -185 110.5 -297t274.5 -112q166 0 273.5 120.5t107.5 340.5q0 45 -11 116q-44 86 -109.5 141t-132 76t-139.5 21q-159 0 -266.5 -111.5t-107.5 -294.5z" />
<glyph unicode="&#xf1;" horiz-adv-x="1167" d="M162 0v995h98v-166q45 76 134 131.5t212 55.5q193 0 302.5 -114.5t109.5 -328.5v-573h-98v563q0 172 -84 263.5t-234 91.5q-128 0 -219.5 -69t-122.5 -171v-678h-98zM274 1262q26 69 75 106t110 37q53 0 100.5 -23.5t87.5 -47t76 -23.5q68 0 111 92l75 -43 q-26 -68 -74 -103.5t-110 -35.5q-53 0 -100.5 23.5t-87.5 47t-76 23.5q-68 0 -111 -92z" />
<glyph unicode="&#xf2;" horiz-adv-x="1179" d="M94 498q0 226 141 372t355 146q213 0 354 -146t141 -372t-141 -372t-354 -146q-214 0 -355 146t-141 372zM197 498q0 -189 113 -304.5t280 -115.5t280 115.5t113 304.5t-113 304.5t-280 115.5t-280 -115.5t-113 -304.5zM383 1483v6h113l137 -303v-6h-82z" />
<glyph unicode="&#xf3;" horiz-adv-x="1179" d="M94 498q0 226 141 372t355 146q213 0 354 -146t141 -372t-141 -372t-354 -146q-214 0 -355 146t-141 372zM197 498q0 -189 113 -304.5t280 -115.5t280 115.5t113 304.5t-113 304.5t-280 115.5t-280 -115.5t-113 -304.5zM547 1180v6l137 303h113v-6l-168 -303h-82z" />
<glyph unicode="&#xf4;" horiz-adv-x="1179" d="M94 498q0 226 141 372t355 146q213 0 354 -146t141 -372t-141 -372t-354 -146q-214 0 -355 146t-141 372zM197 498q0 -189 113 -304.5t280 -115.5t280 115.5t113 304.5t-113 304.5t-280 115.5t-280 -115.5t-113 -304.5zM272 1180v6l267 303h100l266 -303v-6h-110 l-207 223l-205 -223h-111z" />
<glyph unicode="&#xf5;" horiz-adv-x="1179" d="M94 498q0 226 141 372t355 146q213 0 354 -146t141 -372t-141 -372t-354 -146q-214 0 -355 146t-141 372zM197 498q0 -189 113 -304.5t280 -115.5t280 115.5t113 304.5t-113 304.5t-280 115.5t-280 -115.5t-113 -304.5zM281 1262q26 69 74.5 106t109.5 37 q53 0 100.5 -23.5t87.5 -47t76 -23.5q68 0 111 92l75 -43q-26 -68 -74 -103.5t-110 -35.5q-53 0 -100.5 23.5t-87.5 47t-76 23.5q-68 0 -111 -92z" />
<glyph unicode="&#xf6;" horiz-adv-x="1179" d="M94 498q0 226 141 372t355 146q213 0 354 -146t141 -372t-141 -372t-354 -146q-214 0 -355 146t-141 372zM197 498q0 -189 113 -304.5t280 -115.5t280 115.5t113 304.5t-113 304.5t-280 115.5t-280 -115.5t-113 -304.5zM307 1227v227h99v-227h-99zM772 1227v227h98v-227 h-98z" />
<glyph unicode="&#xf7;" d="M154 573v91h921v-91h-921zM532 184v168h166v-168h-166zM532 885v168h166v-168h-166z" />
<glyph unicode="&#xf8;" horiz-adv-x="1179" d="M94 498q0 226 141 372t355 146q115 0 219 -49l72 123h98v-7l-94 -161q94 -70 147 -180t53 -244q0 -226 -141 -372t-354 -146q-117 0 -221 49l-72 -123h-98v6l94 162q-94 70 -146.5 180t-52.5 244zM197 498q0 -214 145 -336l418 719q-82 37 -170 37q-167 0 -280 -115.5 t-113 -304.5zM418 115q78 -37 172 -37q167 0 280 115.5t113 304.5q0 107 -39.5 193.5t-109.5 142.5z" />
<glyph unicode="&#xf9;" horiz-adv-x="1167" d="M150 422v573h98v-563q0 -172 83.5 -263t233.5 -91q128 0 219.5 68.5t122.5 170.5v678h99v-995h-99v166q-45 -76 -134 -131t-212 -55q-193 0 -302 114t-109 328zM375 1483v6h112l138 -303v-6h-82z" />
<glyph unicode="&#xfa;" horiz-adv-x="1167" d="M150 422v573h98v-563q0 -172 83.5 -263t233.5 -91q128 0 219.5 68.5t122.5 170.5v678h99v-995h-99v166q-45 -76 -134 -131t-212 -55q-193 0 -302 114t-109 328zM530 1180v6l138 303h112v-6l-168 -303h-82z" />
<glyph unicode="&#xfb;" horiz-adv-x="1167" d="M150 422v573h98v-563q0 -172 83.5 -263t233.5 -91q128 0 219.5 68.5t122.5 170.5v678h99v-995h-99v166q-45 -76 -134 -131t-212 -55q-193 0 -302 114t-109 328zM264 1180v6l266 303h101l266 -303v-6h-111l-206 223l-205 -223h-111z" />
<glyph unicode="&#xfc;" horiz-adv-x="1167" d="M150 422v573h98v-563q0 -172 83.5 -263t233.5 -91q128 0 219.5 68.5t122.5 170.5v678h99v-995h-99v166q-45 -76 -134 -131t-212 -55q-193 0 -302 114t-109 328zM291 1227v227h98v-227h-98zM756 1227v227h98v-227h-98z" />
<glyph unicode="&#xfd;" horiz-adv-x="1019" d="M43 995h107l376 -788l353 788h106l-625 -1396h-106l221 495zM469 1180v6l137 303h113v-6l-168 -303h-82z" />
<glyph unicode="&#xfe;" horiz-adv-x="1216" d="M162 -401v1855h98v-625q64 89 158 138t209 49q213 0 354 -146t141 -372t-141 -372t-354 -146q-115 0 -209 48t-158 136v-565h-98zM260 301q45 -101 143 -162t224 -61q167 0 280 115.5t113 304.5t-113 304.5t-280 115.5q-126 0 -224 -62t-143 -164v-391z" />
<glyph unicode="&#xff;" horiz-adv-x="1019" d="M43 995h107l376 -788l353 788h106l-625 -1396h-106l221 495zM229 1227v227h99v-227h-99zM694 1227v227h99v-227h-99z" />
<glyph unicode="&#x152;" horiz-adv-x="2002" d="M102 696q0 146 53 278t145 228.5t223 153.5t280 57q93 0 203 -20h882v-99h-780v-542h690v-99h-690v-555h780v-98h-880q-110 -20 -205 -20q-199 0 -360.5 96.5t-251 260t-89.5 359.5zM209 696q0 -173 74 -312.5t210 -220.5t310 -81q113 0 203 20v1186q-103 23 -203 23 q-174 0 -310 -81t-210 -221t-74 -313z" />
<glyph unicode="&#x153;" horiz-adv-x="2021" d="M94 498q0 226 141 372t355 146q152 0 269.5 -77t174.5 -212q51 136 163 212.5t263 76.5q139 0 249 -67.5t169 -180t59 -246.5q0 -37 -4 -61h-843q10 -175 113.5 -279t260.5 -104q115 0 213 54t162 153l80 -58q-173 -247 -455 -247q-152 0 -264.5 75.5t-165.5 212.5 q-55 -136 -173 -212t-271 -76q-214 0 -355 146t-141 372zM197 498q0 -189 113 -304.5t280 -115.5q169 0 282 115.5t113 304.5t-113 304.5t-282 115.5q-167 0 -280 -115.5t-113 -304.5zM1090 551h743q-9 163 -115 265t-258 102t-253.5 -99t-116.5 -268z" />
<glyph unicode="&#x178;" horiz-adv-x="1253" d="M37 1386v7h119l471 -672l471 672h119v-7l-539 -770v-616h-103v616zM346 1583v227h98v-227h-98zM811 1583v227h98v-227h-98z" />
<glyph unicode="&#x2c6;" d="M322 1180v6l266 303h100l266 -303v-6h-110l-207 223l-205 -223h-110z" />
<glyph unicode="&#x2dc;" d="M258 1262q26 69 74.5 106t109.5 37q53 0 100.5 -23.5t88 -47t76.5 -23.5q67 0 110 92l76 -43q-26 -68 -74 -103.5t-110 -35.5q-53 0 -100.5 23.5t-88 47t-76.5 23.5q-67 0 -110 -92z" />
<glyph unicode="&#x2000;" horiz-adv-x="922" />
<glyph unicode="&#x2001;" horiz-adv-x="1845" />
<glyph unicode="&#x2002;" horiz-adv-x="922" />
<glyph unicode="&#x2003;" horiz-adv-x="1845" />
<glyph unicode="&#x2004;" horiz-adv-x="615" />
<glyph unicode="&#x2005;" horiz-adv-x="461" />
<glyph unicode="&#x2006;" horiz-adv-x="307" />
<glyph unicode="&#x2007;" horiz-adv-x="307" />
<glyph unicode="&#x2008;" horiz-adv-x="230" />
<glyph unicode="&#x2009;" horiz-adv-x="369" />
<glyph unicode="&#x200a;" horiz-adv-x="102" />
<glyph unicode="&#x2010;" horiz-adv-x="845" d="M139 575v91h568v-91h-568z" />
<glyph unicode="&#x2011;" horiz-adv-x="845" d="M139 575v91h568v-91h-568z" />
<glyph unicode="&#x2012;" horiz-adv-x="845" d="M139 575v91h568v-91h-568z" />
<glyph unicode="&#x2013;" horiz-adv-x="1134" d="M139 575v91h856v-91h-856z" />
<glyph unicode="&#x2014;" horiz-adv-x="1884" d="M139 575v91h1606v-91h-1606z" />
<glyph unicode="&#x2018;" horiz-adv-x="432" d="M133 930v141l76 322h82l-70 -303h70v-160h-158z" />
<glyph unicode="&#x2019;" horiz-adv-x="417" d="M143 930l70 303h-70v160h158v-142l-76 -321h-82z" />
<glyph unicode="&#x201a;" horiz-adv-x="444" d="M143 0v160h158v-142l-76 -321h-82l70 303h-70z" />
<glyph unicode="&#x201c;" horiz-adv-x="739" d="M133 930v141l76 322h82l-70 -303h70v-160h-158zM440 930v141l76 322h82l-70 -303h70v-160h-158z" />
<glyph unicode="&#x201d;" horiz-adv-x="724" d="M143 930l70 303h-70v160h158v-142l-76 -321h-82zM451 930l69 303h-69v160h157v-142l-76 -321h-81z" />
<glyph unicode="&#x201e;" horiz-adv-x="751" d="M143 0v160h158v-142l-76 -321h-82l70 303h-70zM451 0v160h157v-142l-76 -321h-81l69 303h-69z" />
<glyph unicode="&#x2022;" horiz-adv-x="819" d="M211 616q0 84 55.5 139.5t143.5 55.5t143 -55.5t55 -139.5t-55 -139t-143 -55t-143.5 55t-55.5 139z" />
<glyph unicode="&#x2026;" horiz-adv-x="1263" d="M139 0v168h166v-168h-166zM549 0v168h166v-168h-166zM958 0v168h166v-168h-166z" />
<glyph unicode="&#x202f;" horiz-adv-x="369" />
<glyph unicode="&#x2039;" horiz-adv-x="643" d="M90 602v33l324 348h110v-6l-325 -359l325 -358v-6h-110z" />
<glyph unicode="&#x203a;" horiz-adv-x="643" d="M119 254v6l325 358l-325 359v6h110l324 -348v-33l-324 -348h-110z" />
<glyph unicode="&#x205f;" horiz-adv-x="461" />
<glyph unicode="&#x20ac;" d="M39 508v98h147q-4 58 -4 90q0 28 4 90h-147v99h160q46 243 198.5 385.5t366.5 142.5q259 0 416 -248l-84 -59q-121 205 -332 205q-175 0 -297 -113t-162 -313h606v-99h-618q-4 -58 -4 -90t4 -90h618v-98h-606q40 -201 161.5 -313.5t297.5 -112.5q211 0 332 205l84 -60 q-157 -247 -416 -247q-214 0 -366.5 142.5t-198.5 385.5h-160z" />
<glyph unicode="&#x2122;" horiz-adv-x="1404" d="M72 1300v84h454v-84h-182v-497h-90v497h-182zM631 803v581h117l194 -452l193 452h114v-581h-90v432l-180 -432h-74l-184 434v-434h-90z" />
<glyph unicode="&#x25fc;" horiz-adv-x="993" d="M0 0v993h993v-993h-993z" />
<glyph unicode="&#xfb01;" horiz-adv-x="1030" d="M45 905v90h182v166q0 138 76.5 219.5t218.5 81.5q31 0 47 -2v-88h-16q-123 0 -175 -51t-52 -160v-166h243v-90h-243v-905h-99v905h-182zM770 0v995h98v-995h-98zM770 1227v227h98v-227h-98z" />
<glyph unicode="&#xfb02;" horiz-adv-x="1030" d="M45 905v90h182v166q0 138 76.5 219.5t218.5 81.5q31 0 47 -2v-88h-16q-123 0 -175 -51t-52 -160v-166h243v-90h-243v-905h-99v905h-182zM770 0v1454h98v-1454h-98z" />
</font>
</defs>
</svg>
