<?xml version="1.0" standalone="no"?>
<!DOCTYPE svg PUBLIC "-//W3C//DTD SVG 1.1//EN" "http://www.w3.org/Graphics/SVG/1.1/DTD/svg11.dtd" >
<svg xmlns="http://www.w3.org/2000/svg">
<metadata></metadata>
<defs>
<font id="hyundai_sans_text_officeRg" horiz-adv-x="1146" >
<font-face units-per-em="2048" ascent="1536" descent="-512" />
<missing-glyph horiz-adv-x="481" />
<glyph horiz-adv-x="0" />
<glyph unicode="&#xd;" horiz-adv-x="481" />
<glyph unicode=" "  horiz-adv-x="481" />
<glyph unicode="&#x09;" horiz-adv-x="481" />
<glyph unicode="&#xa0;" horiz-adv-x="481" />
<glyph unicode="!" horiz-adv-x="573" d="M164 0v244h244v-244h-244zM178 1393h217l-45 -924h-127z" />
<glyph unicode="&#x22;" horiz-adv-x="774" d="M129 1393h178l-35 -502h-108zM467 1393h178l-35 -502h-108z" />
<glyph unicode="#" horiz-adv-x="1249" d="M82 340v129h182l92 403h-153v129h184l78 342h143l-78 -342h328l78 342h143l-78 -342h164v-129h-194l-92 -403h165v-129h-194l-78 -340h-143l78 340h-328l-78 -340h-143l78 340h-154zM408 469h327l92 403h-327z" />
<glyph unicode="$" d="M90 272l113 95q43 -84 119.5 -155t199.5 -87v516l-22 6q-76 20 -138.5 53t-107.5 77t-69.5 101.5t-24.5 129.5q0 66 24.5 125t70.5 107t111.5 80t149.5 42v188h141v-190q117 -16 201 -71.5t141 -133.5l-102 -102q-106 135 -246 161v-444h2q82 -23 153 -55.5t121 -78.5 t78.5 -108.5t28.5 -146.5q0 -78 -25.5 -144.5t-74.5 -118.5t-119 -87t-158 -47v-203h-141v199q-86 8 -152.5 35.5t-118.5 68.5t-90 90t-65 98zM328 1018q0 -92 54 -139.5t140 -71.5v407q-92 -16 -143 -70t-51 -126zM651 129q109 18 162 87t53 159q0 47 -15 83t-44 62.5 t-68 46t-88 35.5v-473z" />
<glyph unicode="%" horiz-adv-x="1595" d="M66 1044q0 70 22.5 128.5t64.5 101.5t100 67.5t130 24.5t130 -24.5t100 -67.5t64.5 -101.5t22.5 -128.5t-22.5 -128t-64.5 -101t-100 -67.5t-130 -24.5t-130 24.5t-100 67.5t-64.5 101.5t-22.5 127.5zM201 1044q0 -84 49 -140t133 -56t133 56.5t49 139.5q0 84 -49 140.5 t-133 56.5t-133 -56.5t-49 -140.5zM412 0l628 1343h142l-627 -1343h-143zM897 299q0 70 22.5 128t64.5 101t100.5 68t129.5 25q72 0 130.5 -25t100.5 -68t64.5 -101t22.5 -128t-22.5 -128t-64.5 -101t-100.5 -68t-130.5 -25t-130 25t-100 68t-64.5 101t-22.5 128zM1032 299 q0 -84 49 -140.5t133 -56.5t133.5 56.5t49.5 140.5t-49.5 140.5t-133.5 56.5t-133 -56.5t-49 -140.5z" />
<glyph unicode="&#x26;" horiz-adv-x="1329" d="M88 385q0 160 88 266.5t236 169.5q-37 57 -63.5 123t-26.5 146q0 63 22.5 122.5t66.5 104.5t107.5 71.5t145.5 26.5q76 0 137 -25.5t103 -68.5t64.5 -98.5t22.5 -114.5q0 -70 -21.5 -121t-57 -89t-84 -63.5t-99.5 -43.5l-78 -29l262 -318l207 312l119 -88l-231 -338 l268 -324l2 -6h-213l-154 190q-78 -98 -175 -155.5t-236 -57.5q-96 0 -172 34t-129.5 90.5t-82 130t-28.5 153.5zM248 393q0 -59 18.5 -109.5t52 -87t81 -58t104.5 -21.5q104 0 178 52t137 138l-319 400q-115 -49 -183.5 -123t-68.5 -191zM481 1090q0 -63 21.5 -113.5 t58.5 -102.5l62 21q53 18 93 36.5t65.5 42t37.5 55.5t12 77q0 66 -45 118t-122 52q-92 0 -137.5 -55t-45.5 -131z" />
<glyph unicode="'" horiz-adv-x="436" d="M129 1393h178l-35 -502h-108z" />
<glyph unicode="(" horiz-adv-x="663" d="M109 535q0 184 38.5 330.5t100 257t136.5 189.5t146 132l82 -103q-70 -57 -131 -132.5t-107 -174t-73 -222.5t-27 -277q0 -154 27 -278t73 -222t107.5 -174t130.5 -133l-82 -103q-72 51 -146.5 131t-136 190.5t-100 257.5t-38.5 331z" />
<glyph unicode=")" horiz-adv-x="663" d="M51 -272q70 57 131.5 133t107.5 174t72.5 222t26.5 278t-26.5 277.5t-72.5 222t-107.5 174t-131.5 132.5l82 103q70 -53 144.5 -132t136 -189.5t101.5 -257t40 -330.5t-40 -331t-101.5 -257.5t-136 -190.5t-144.5 -131z" />
<glyph unicode="*" horiz-adv-x="942" d="M92 1063l47 143l129 -47q53 -18 95.5 -36.5t50.5 -28.5l4 4q-8 10 -11.5 56t-7.5 101l-4 138h152l-4 -138q-4 -55 -7.5 -101t-11.5 -56l4 -4q8 10 50.5 28.5t95.5 36.5l129 47l47 -143l-133 -37q-53 -16 -97.5 -26.5t-58.5 -6.5l-2 -6q12 -4 43 -39t66 -78l84 -106 l-123 -90l-76 114q-31 45 -54.5 85t-23.5 55h-6q0 -14 -23.5 -54t-56.5 -86l-76 -114l-123 90l84 106q35 43 66 78t43 39l-2 6q-14 -4 -58 6.5t-98 26.5z" />
<glyph unicode="+" d="M143 545v147h357v400h147v-400h357v-147h-357v-398h-147v398h-357z" />
<glyph unicode="," horiz-adv-x="548" d="M145 0v244h258v-217l-112 -369h-127l106 342h-125z" />
<glyph unicode="-" horiz-adv-x="821" d="M147 545v147h527v-147h-527z" />
<glyph unicode="." horiz-adv-x="534" d="M145 0v244h244v-244h-244z" />
<glyph unicode="/" horiz-adv-x="825" d="M61 0l541 1393h162l-541 -1393h-162z" />
<glyph unicode="0" horiz-adv-x="1245" d="M121 672q0 154 32.5 281.5t96 220t157 142.5t216.5 50t216 -50t156.5 -142.5t96 -220.5t32.5 -281q0 -154 -32.5 -282t-96 -220t-156.5 -142.5t-216 -50.5t-216.5 50.5t-157 142.5t-96 220t-32.5 282zM291 672q0 -121 19.5 -220.5t59.5 -172t103.5 -112.5t149.5 -40 t149.5 40t103 112.5t59 172t19.5 220.5q0 119 -19.5 219t-59 173t-103 113t-149.5 40t-149.5 -40t-103.5 -113t-59.5 -173t-19.5 -219z" />
<glyph unicode="1" horiz-adv-x="731" d="M37 1120l362 223h127v-1343h-164v1155l-260 -162z" />
<glyph unicode="2" horiz-adv-x="1052" d="M98 0v121q39 86 102.5 158.5t136.5 138t147.5 126t134 125t97.5 134t38 153.5q0 119 -60.5 190t-191.5 71q-199 0 -260 -222l-136 66q14 51 45 105.5t80.5 99.5t117 72.5t157.5 27.5q98 0 175 -29.5t131 -83t83 -127t29 -163.5q0 -102 -38 -187.5t-97.5 -157t-132 -134 t-141.5 -119t-127 -110.5t-87 -110h639v-145h-842z" />
<glyph unicode="3" horiz-adv-x="1095" d="M72 203l100 106q27 -35 57.5 -66.5t69.5 -58t89 -42t116 -15.5q143 0 226 69.5t83 194.5q0 111 -73.5 180.5t-229.5 69.5h-115v141h115q61 0 106.5 18.5t75 48.5t44 68.5t14.5 81.5q0 111 -69 164.5t-169 53.5q-98 0 -167 -40t-109 -112l-101 96q53 86 147.5 145.5 t229.5 59.5q186 0 297 -93t111 -267q0 -92 -52.5 -167t-140.5 -116q123 -33 189.5 -125t66.5 -215q0 -92 -35 -167t-97.5 -128t-151.5 -82t-195 -29q-84 0 -151.5 21.5t-120 54.5t-92.5 73t-68 77z" />
<glyph unicode="4" horiz-adv-x="1159" d="M59 362v119l611 862h209v-837h208v-144h-208v-362h-164v362h-656zM264 506h451v455q0 68 2 112.5t10 97.5h-6q-8 -23 -39 -71.5t-72 -106.5z" />
<glyph unicode="5" horiz-adv-x="1079" d="M82 188l98 107q25 -31 55.5 -60.5t69.5 -54t85 -39t106 -14.5q66 0 123 21.5t99 63.5t65.5 101.5t23.5 137.5q0 147 -79 226t-202 79q-86 0 -147.5 -28t-114.5 -77l-100 33l63 659h674v-145h-532l-35 -344q43 23 93 37t110 14q92 0 171.5 -29.5t140 -87t94.5 -142.5 t34 -195q0 -109 -36 -196t-100.5 -148.5t-152.5 -95.5t-192 -34q-78 0 -142.5 20.5t-116 51.5t-90 68t-65.5 71z" />
<glyph unicode="6" horiz-adv-x="1187" d="M121 639q0 170 39 305t109.5 228.5t171 143.5t225.5 50q137 0 235 -63.5t154 -149.5l-115 -90q-45 70 -114.5 112t-159.5 42q-164 0 -268.5 -128t-116.5 -374q53 86 141 140t215 54q90 0 170 -34.5t140.5 -96t95 -147.5t34.5 -187q0 -102 -36.5 -187t-99 -147.5 t-147.5 -97.5t-182 -35q-121 0 -213 47.5t-153.5 134.5t-93 208.5t-31.5 271.5zM322 442q0 -139 78.5 -227t211.5 -88q135 0 215 88t80 227q0 70 -21.5 129.5t-59.5 100.5t-92 64.5t-122 23.5q-66 0 -120 -23.5t-92 -64.5t-58 -100.5t-20 -129.5z" />
<glyph unicode="7" horiz-adv-x="964" d="M66 1198v145h839v-120l-522 -1223h-193v6l525 1192h-649z" />
<glyph unicode="8" horiz-adv-x="1196" d="M111 381q0 127 70.5 224t185.5 128q-92 43 -136.5 116t-44.5 169q0 72 27 135.5t79 110.5t129 74.5t177 27.5t177 -27.5t129 -74.5t79 -110.5t27 -135.5q0 -96 -44 -169t-137 -116q55 -16 102.5 -49t81.5 -79t53 -103.5t19 -120.5q0 -88 -31.5 -162t-93 -128t-152.5 -84 t-210 -30t-210 30t-152.5 84t-93 128t-31.5 162zM281 391q0 -117 80.5 -190.5t236.5 -73.5t236.5 73.5t80.5 190.5t-80.5 191.5t-236.5 74.5t-236.5 -74.5t-80.5 -191.5zM356 1008q0 -100 70 -152.5t172 -52.5t172 52t70 153q0 100 -70 154.5t-172 54.5t-172 -54.5 t-70 -154.5z" />
<glyph unicode="9" horiz-adv-x="1185" d="M109 899q0 100 35.5 186t99 148.5t148.5 97.5t181 35q121 0 213.5 -47t153.5 -134t93 -209t32 -271q0 -170 -39 -305.5t-109.5 -229.5t-171 -143.5t-225.5 -49.5q-137 0 -235.5 63.5t-153.5 149.5l115 91q45 -70 114.5 -112t159.5 -42q164 0 268.5 128t116.5 374 q-53 -86 -141 -140.5t-215 -54.5q-90 0 -171 35t-140.5 96.5t-94 146.5t-34.5 187zM279 901q0 -72 21.5 -130t59 -99t92 -64.5t121.5 -23.5q66 0 120.5 23.5t92 64.5t58 99t20.5 130q0 139 -78.5 227.5t-212.5 88.5q-135 0 -214.5 -88.5t-79.5 -227.5z" />
<glyph unicode=":" horiz-adv-x="532" d="M147 0v238h238v-238h-238zM147 778v238h238v-238h-238z" />
<glyph unicode=";" horiz-adv-x="552" d="M152 0v236h249v-209l-108 -359h-123l102 332h-120zM158 778v238h237v-238h-237z" />
<glyph unicode="&#x3c;" d="M117 549v139l860 412v-154l-555 -266q-49 -23 -93 -40t-67 -19v-7q23 -2 67 -18t93 -39l555 -266v-154z" />
<glyph unicode="=" d="M143 299v147h861v-147h-861zM143 791v147h861v-147h-861z" />
<glyph unicode="&#x3e;" d="M170 137v154l555 266q49 23 93 39t67 18v7q-23 2 -67 18t-93 41l-555 266v154l860 -412v-139z" />
<glyph unicode="?" horiz-adv-x="897" d="M63 1120q12 57 42 110.5t76 94.5t109.5 65.5t147.5 24.5q86 0 156 -24.5t119 -68.5t74.5 -105.5t25.5 -135.5q0 -59 -14.5 -106t-38 -86t-55 -73t-64.5 -66l-86 -84q-27 -25 -44 -46.5t-28.5 -44t-14.5 -48t-1 -58.5h-152q-31 88 10.5 167t114.5 148l84 82 q51 57 84 101.5t33 103.5q0 86 -55.5 139.5t-153.5 53.5t-155.5 -53.5t-73.5 -141.5zM274 0v244h244v-244h-244z" />
<glyph unicode="@" horiz-adv-x="1847" d="M109 543q0 205 60 373.5t168.5 290.5t262.5 189.5t338 67.5q178 0 324.5 -61.5t250 -170t161 -258t57.5 -323.5q0 -158 -32 -266.5t-81 -176t-110.5 -98t-121.5 -30.5q-84 0 -143 42t-82 118q-47 -72 -118.5 -116t-165.5 -44q-86 0 -157 33.5t-121 95t-76.5 145.5 t-26.5 187q0 100 26.5 185t76.5 146.5t119.5 95t155.5 33.5q84 0 152 -39.5t113 -107.5v133h151v-625q0 -139 101 -139q31 0 64.5 18.5t61 66.5t46 130t18.5 209q0 147 -44 272t-127 216.5t-203 143.5t-269 52q-156 0 -281 -57t-214 -161.5t-137 -250t-48 -319.5t47 -315.5 t134 -241t210 -153.5t275 -54q109 0 199.5 29.5t162.5 70.5l57 -121q-92 -53 -198.5 -82.5t-220.5 -29.5q-178 0 -328 62.5t-258.5 178t-168.5 281.5t-60 375zM659 541q0 -143 64.5 -230.5t179.5 -87.5q82 0 142.5 47t89.5 125v291q-29 78 -89.5 125t-142.5 47 q-115 0 -179.5 -87t-64.5 -230z" />
<glyph unicode="A" horiz-adv-x="1261" d="M25 0l512 1393h190l510 -1393h-182l-125 350h-600l-123 -350h-182zM381 496h498l-191 544q-23 61 -38 115.5t-15 77.5h-6q0 -23 -16.5 -77t-39.5 -116z" />
<glyph unicode="B" horiz-adv-x="1288" d="M205 0v1393h452q203 0 312.5 -97.5t109.5 -269.5q0 -92 -43 -165t-121 -120q57 -16 107.5 -43.5t87.5 -70.5t57.5 -101.5t20.5 -136.5q0 -178 -115 -283.5t-338 -105.5h-530zM375 141h352q147 0 216 66.5t69 185.5t-69 185.5t-216 66.5h-352v-504zM375 786h262 q139 0 202.5 61.5t63.5 170.5q0 111 -63.5 172t-202.5 61h-262v-465z" />
<glyph unicode="C" horiz-adv-x="1363" d="M113 696q0 162 46 295t127 227.5t193.5 145.5t247.5 51q102 0 190.5 -27.5t159 -76.5t122.5 -119t83 -156l-145 -67q-53 143 -155.5 219t-252.5 76q-98 0 -180 -39t-139.5 -112t-89 -178.5t-31.5 -238.5t31.5 -238.5t89 -178t139.5 -111.5t180 -39q150 0 252 76t156 219 l145 -68q-31 -86 -83 -155.5t-122.5 -118.5t-159 -77t-190.5 -28q-135 0 -247.5 51.5t-193.5 145.5t-127 227t-46 295z" />
<glyph unicode="D" horiz-adv-x="1429" d="M205 0v1393h477q135 0 251 -46.5t201 -134.5t133 -218t48 -298t-48 -298t-133 -218t-201 -134t-251 -46h-477zM375 145h295q106 0 192 35t147.5 104.5t95.5 173t34 238.5t-34 238.5t-95.5 173.5t-147.5 104.5t-192 34.5h-295v-1102z" />
<glyph unicode="E" horiz-adv-x="1169" d="M205 0v1393h848v-146h-678v-471h581v-145h-581v-486h678v-145h-848z" />
<glyph unicode="F" horiz-adv-x="1097" d="M205 0v1393h829v-146h-659v-479h575v-145h-575v-623h-170z" />
<glyph unicode="G" horiz-adv-x="1413" d="M113 696q0 162 46 295t129 227.5t198.5 145.5t256.5 51q188 0 322.5 -88t214.5 -225l-139 -92q-59 106 -156.5 180t-239.5 74q-104 0 -188 -39t-144.5 -112t-92 -178.5t-31.5 -238.5q0 -268 121.5 -417.5t332.5 -149.5q106 0 205 37t160 100v330h-324v145h494v-555 q-100 -90 -241.5 -149.5t-295.5 -59.5q-141 0 -256.5 51.5t-198.5 145.5t-128 227t-45 295z" />
<glyph unicode="H" horiz-adv-x="1470" d="M205 0v1393h170v-617h721v617h170v-1393h-170v631h-721v-631h-170z" />
<glyph unicode="I" horiz-adv-x="579" d="M205 0v1393h170v-1393h-170z" />
<glyph unicode="J" horiz-adv-x="1060" d="M25 233l127 91q37 -80 103.5 -137.5t174.5 -57.5q131 0 201.5 84t70.5 258v922h170v-928q0 -229 -116.5 -358.5t-321.5 -129.5q-78 0 -143.5 21.5t-117.5 57.5t-90 82t-58 95z" />
<glyph unicode="K" horiz-adv-x="1241" d="M205 0v1393h170v-736l604 736h207v-9l-494 -573l518 -805v-6h-194l-430 686l-211 -246v-440h-170z" />
<glyph unicode="L" horiz-adv-x="1060" d="M205 0v1393h170v-1248h643v-145h-813z" />
<glyph unicode="M" horiz-adv-x="1773" d="M205 0v1393h217l405 -1010q23 -55 40.5 -105.5t17.5 -72.5h6q0 23 16.5 73t38.5 105l406 1010h217v-1393h-170v848q0 45 1 90t2 83t2 65.5t3 37.5h-6q-2 -12 -10.5 -37.5t-20.5 -60.5t-27.5 -77t-33.5 -85l-342 -864h-160l-342 864q-18 43 -33.5 85t-28 77t-20.5 60.5 t-10 37.5h-6q2 -10 3 -37.5t2 -65.5t2 -83t1 -90v-848h-170z" />
<glyph unicode="N" horiz-adv-x="1497" d="M205 0v1393h149l664 -947q41 -55 71.5 -104t38.5 -72h7q-6 23 -9.5 82.5t-3.5 128.5v912h170v-1393h-149l-664 946q-41 55 -71.5 104.5t-38.5 71.5h-7q6 -23 9.5 -82t3.5 -129v-911h-170z" />
<glyph unicode="O" horiz-adv-x="1486" d="M113 696q0 162 46 295t129 227.5t198.5 145.5t254.5 51q141 0 258 -51t200 -145.5t129 -227.5t46 -295t-46 -295t-129 -227t-199.5 -145.5t-258.5 -51.5q-139 0 -254.5 51.5t-198.5 145.5t-129 227.5t-46 294.5zM289 696q0 -133 32.5 -238.5t92 -178t143.5 -111.5 t186 -39t186.5 39t144 111.5t92 178t32.5 238.5t-32.5 238.5t-92 178.5t-144 112t-186.5 39t-186 -39t-143.5 -112t-92 -178.5t-32.5 -238.5z" />
<glyph unicode="P" horiz-adv-x="1187" d="M205 0v1393h463q209 0 326.5 -106.5t117.5 -305.5t-117.5 -305.5t-326.5 -106.5h-293v-569h-170zM375 715h272q145 0 217 68.5t72 197.5t-71.5 197.5t-217.5 68.5h-272v-532z" />
<glyph unicode="Q" horiz-adv-x="1488" d="M115 696q0 162 46 295t129 227.5t198.5 145.5t254.5 51q141 0 258 -51t200 -145.5t129 -227.5t46 -295q0 -186 -59.5 -332.5t-167.5 -240.5l225 -303l-133 -94l-223 311q-125 -59 -275 -60q-139 0 -254.5 51.5t-198.5 145.5t-129 227.5t-46 294.5zM291 696 q0 -133 32.5 -238.5t92 -178t143.5 -111.5t186 -39t186.5 39t144 111.5t92 178t32.5 238.5t-32.5 238.5t-92 178.5t-143.5 112t-187 39q-102 0 -186 -39t-143.5 -112t-92 -178.5t-32.5 -238.5z" />
<glyph unicode="R" horiz-adv-x="1296" d="M205 0v1393h506q94 0 173 -27t135 -77t87 -123.5t31 -166.5q0 -164 -92.5 -264t-245.5 -123l485 -606v-6h-207l-467 606h-235v-606h-170zM375 752h319q266 0 267 247q0 248 -267 248h-319v-495z" />
<glyph unicode="S" d="M68 283l127 96q25 -49 59.5 -94t79.5 -80t103.5 -56.5t131.5 -21.5q72 0 128.5 20.5t95 55.5t59 81t20.5 99q0 55 -16 96t-49 70t-83 50.5t-116 39.5l-102 29q-166 45 -255 138t-89 241q0 70 25.5 136t75.5 118.5t126 83t176 30.5q154 0 258.5 -65.5t163.5 -169.5 l-125 -90q-59 98 -135 137t-164 39q-57 0 -99 -17.5t-69.5 -47.5t-42 -67.5t-14.5 -78.5q0 -88 51 -139.5t168 -81.5l102 -29q193 -51 291.5 -152.5t98.5 -263.5q0 -86 -33 -161.5t-95.5 -131t-151.5 -87.5t-202 -32q-100 0 -179 28t-140.5 71t-105.5 97t-74 110z" />
<glyph unicode="T" horiz-adv-x="1095" d="M45 1247v146h1006v-146h-418v-1247h-170v1247h-418z" />
<glyph unicode="U" horiz-adv-x="1400" d="M186 524v869h170v-854q0 -193 85 -301.5t259 -108.5t259 108.5t85 301.5v854h170v-869q0 -121 -33.5 -222t-99 -173t-162 -112t-219.5 -40t-219 40t-161.5 112t-99.5 173t-34 222z" />
<glyph unicode="V" horiz-adv-x="1257" d="M33 1393h178l360 -1039q23 -61 39.5 -116.5t16.5 -77.5h6q0 23 15.5 78t37.5 116l361 1039h178l-500 -1393h-193z" />
<glyph unicode="W" horiz-adv-x="1875" d="M49 1393h174l242 -975q18 -74 31.5 -138.5t13.5 -86.5h6q2 23 16.5 87t36.5 136l279 977h180l279 -977q23 -72 37 -136.5t16 -86.5h6q0 23 13.5 87t31.5 138l242 975h174l-371 -1393h-182l-283 979q-20 70 -34.5 131t-14.5 84h-6q0 -23 -14.5 -84t-36.5 -131l-283 -979 h-182z" />
<glyph unicode="X" horiz-adv-x="1230" d="M27 0v6l479 725l-428 655v7h203l333 -533l336 533h203v-7l-430 -655l481 -725v-6h-203l-387 606l-385 -606h-202z" />
<glyph unicode="Y" horiz-adv-x="1167" d="M23 1386v7h198l363 -629l362 629h199v-7l-477 -765v-621h-170v625z" />
<glyph unicode="Z" horiz-adv-x="1097" d="M82 0v127l692 1120h-661v146h880v-127l-696 -1121h713v-145h-928z" />
<glyph unicode="[" horiz-adv-x="622" d="M193 -340v1733h348v-127h-191v-1479h191v-127h-348z" />
<glyph unicode="\" horiz-adv-x="825" d="M61 1393h162l541 -1393h-162z" />
<glyph unicode="]" horiz-adv-x="622" d="M82 -213h190v1479h-190v127h348v-1733h-348v127z" />
<glyph unicode="^" d="M160 766l352 627h123l352 -627l-156 -4l-190 344q-27 47 -45 87t-18 62h-7q0 -23 -19.5 -62.5t-45.5 -86.5l-191 -344z" />
<glyph unicode="_" horiz-adv-x="923" d="M0 -117h924v-147h-924v147z" />
<glyph unicode="`" horiz-adv-x="1452" d="M479 1491v6h183l176 -305v-6h-138z" />
<glyph unicode="a" horiz-adv-x="1067" d="M90 311q0 70 26.5 130.5t75 105.5t118 71.5t155.5 26.5q80 0 153.5 -29.5t129.5 -89.5v103q0 111 -60.5 187.5t-187.5 76.5q-90 0 -145.5 -31t-110.5 -84l-94 107q27 29 60.5 56.5t76.5 49t96 34.5t121 13q100 0 176 -28.5t127 -80.5t77.5 -126t26.5 -162v-641h-157v100 q-57 -61 -132 -92t-157 -31q-86 0 -155.5 27t-118 72t-75 105.5t-26.5 129.5zM256 311q0 -35 13.5 -69.5t41 -63t71.5 -46t105 -17.5q70 0 145 28.5t116 98.5v139q-41 68 -116 97.5t-145 29.5q-61 0 -105 -17.5t-71.5 -46t-41 -63.5t-13.5 -70z" />
<glyph unicode="b" horiz-adv-x="1196" d="M168 0v1454h164v-575q57 74 139 116.5t178 42.5q100 0 182 -38.5t140.5 -108.5t89.5 -168t31 -215t-31 -215t-89.5 -168t-140 -109t-182.5 -39q-98 0 -182 44.5t-141 121.5v-143h-158zM332 305q35 -82 110.5 -132t171.5 -50q145 0 226.5 102.5t81.5 282.5t-81 282.5 t-227 102.5q-96 0 -171.5 -51t-110.5 -133v-404z" />
<glyph unicode="c" horiz-adv-x="1062" d="M104 508q0 117 32 215t92.5 168t147.5 108.5t197 38.5q145 0 254 -72.5t152 -195.5l-129 -65q-35 92 -106.5 140t-170.5 48q-137 0 -218 -101.5t-81 -283.5t81 -283.5t218 -101.5q98 0 170 48t107 140l129 -65q-43 -123 -151.5 -196t-254.5 -73q-111 0 -197.5 39 t-147 109t-92.5 168t-32 215z" />
<glyph unicode="d" horiz-adv-x="1196" d="M104 508q0 117 31 215t89.5 168t139 108.5t183.5 38.5q96 0 178 -43t139 -116v575h164v-1454h-158v143q-57 -78 -141 -122t-182 -44q-102 0 -183 39t-139.5 109t-89.5 168t-31 215zM274 508q0 -180 81.5 -282.5t226.5 -102.5q96 0 171.5 50t110.5 132v404 q-35 82 -110.5 133t-171.5 51q-145 0 -226.5 -102.5t-81.5 -282.5z" />
<glyph unicode="e" horiz-adv-x="1101" d="M104 508q0 121 33 219t93.5 167t145.5 106.5t189 37.5q102 0 184 -37.5t139.5 -104.5t88.5 -159t31 -200q0 -43 -7 -80h-725q10 -160 90 -247t216 -87q94 0 167.5 39t118.5 110l111 -92q-57 -86 -156.5 -144.5t-251.5 -58.5q-109 0 -194.5 37t-146 106.5t-93.5 167 t-33 220.5zM279 596h557q-8 137 -81 217t-190 80t-192.5 -77t-93.5 -220z" />
<glyph unicode="f" horiz-adv-x="681" d="M63 877v139h175v149q0 133 74.5 217t226.5 84q20 0 43.5 -1t42.5 -3v-135h-50q-174 0 -174 -164v-147h224v-139h-224v-877h-163v877h-175z" />
<glyph unicode="g" horiz-adv-x="1171" d="M104 539q0 109 30 200.5t85 158.5t133 103.5t174 36.5q98 0 181.5 -44t138.5 -120v142h158v-928q0 -98 -28 -188t-84 -158t-142 -109t-205 -41q-82 0 -148.5 20.5t-118 55.5t-89 80t-60.5 96l123 78q37 -82 109.5 -133t177.5 -51q82 0 139 27.5t93 74.5t52.5 109.5 t16.5 132.5v113q-55 -72 -136.5 -114t-177.5 -42t-174 37t-133 103.5t-85 158.5t-30 201zM274 539q0 -164 77 -259.5t212 -95.5q94 0 168 49.5t109 126.5v355q-35 78 -109 128t-168 50q-135 0 -212 -95.5t-77 -258.5z" />
<glyph unicode="h" horiz-adv-x="1159" d="M168 0v1454h164v-567q41 57 120.5 104t182.5 47q178 0 273.5 -106.5t95.5 -298.5v-633h-164v616q0 137 -64.5 207t-181.5 70q-104 0 -172 -55.5t-90 -126.5v-711h-164z" />
<glyph unicode="i" horiz-adv-x="499" d="M147 1249v205h205v-205h-205zM168 0v1016h164v-1016h-164z" />
<glyph unicode="j" horiz-adv-x="499" d="M16 -293q78 63 115 133t37 178v998h164v-1004q0 -152 -58.5 -254t-156.5 -168zM147 1249v205h205v-205h-205z" />
<glyph unicode="k" horiz-adv-x="1026" d="M168 0v1454h164v-932l434 494h197v-8l-375 -410l426 -592v-6h-189l-340 489l-153 -170v-319h-164z" />
<glyph unicode="l" horiz-adv-x="499" d="M168 0v1454h164v-1454h-164z" />
<glyph unicode="m" horiz-adv-x="1802" d="M168 0v1016h158v-139q20 31 51 59.5t70.5 51t87 36.5t100.5 14q113 0 191.5 -46t119.5 -134q18 33 51 64.5t76 57.5t96.5 42t112.5 16q176 0 270.5 -105.5t94.5 -295.5v-637h-164v621q0 135 -60.5 203.5t-171.5 68.5q-104 0 -171.5 -55.5t-90.5 -126.5v-711h-164v621 q0 135 -60 203.5t-171 68.5q-104 0 -172 -55.5t-90 -126.5v-711h-164z" />
<glyph unicode="n" horiz-adv-x="1159" d="M168 0v1016h158v-139q20 31 51 59.5t70.5 51t87 36.5t100.5 14q178 0 273.5 -106.5t95.5 -298.5v-633h-164v616q0 137 -64.5 207t-181.5 70q-104 0 -172 -55.5t-90 -126.5v-711h-164z" />
<glyph unicode="o" horiz-adv-x="1163" d="M102 508q0 117 34 215t96.5 168t151.5 108.5t198 38.5t197.5 -38.5t151 -108.5t96.5 -168t34 -215t-34 -215t-96.5 -168t-151.5 -109t-197 -39q-109 0 -198 39t-151.5 109t-96.5 168t-34 215zM272 508q0 -182 84.5 -283.5t225.5 -101.5t225 101.5t84 283.5t-84 283.5 t-225 101.5t-225.5 -101.5t-84.5 -283.5z" />
<glyph unicode="p" horiz-adv-x="1196" d="M168 -385v1401h158v-146q55 78 140 123t183 45q100 0 182 -38.5t140.5 -108.5t89.5 -168t31 -215t-31 -215t-89.5 -168t-140 -109t-182.5 -39q-96 0 -179 43t-138 115v-520h-164zM332 305q35 -82 110.5 -132t171.5 -50q145 0 226.5 102.5t81.5 282.5t-81 282.5 t-227 102.5q-96 0 -171.5 -51t-110.5 -133v-404z" />
<glyph unicode="q" horiz-adv-x="1196" d="M104 508q0 117 31 215t89.5 168t139 108.5t183.5 38.5q98 0 183 -45t140 -123v146h158v-1401h-164v520q-55 -72 -138 -115t-179 -43q-102 0 -183 39t-139.5 109t-89.5 168t-31 215zM274 508q0 -180 81.5 -282.5t226.5 -102.5q96 0 171.5 50t110.5 132v404 q-35 82 -110.5 133t-171.5 51q-145 0 -226.5 -102.5t-81.5 -282.5z" />
<glyph unicode="r" horiz-adv-x="718" d="M168 0v1016h158v-182q41 84 116.5 144t184.5 60h21t22 -4v-166h-56q-102 0 -173.5 -55t-108.5 -172v-641h-164z" />
<glyph unicode="s" horiz-adv-x="925" d="M68 188l106 99q45 -68 114.5 -119t166.5 -51q98 0 155.5 45t57.5 123q0 72 -51.5 108.5t-137.5 55.5l-86 18q-121 27 -185.5 96.5t-64.5 179.5q0 57 21.5 111.5t62.5 94.5t102.5 64.5t139.5 24.5q106 0 188 -45t134 -121l-107 -92q-45 63 -100.5 91t-120.5 28 q-76 0 -115 -42t-39 -97q0 -111 131 -139l86 -19q145 -31 226.5 -101.5t81.5 -205.5q0 -61 -26 -118.5t-75 -101.5t-120.5 -71t-161.5 -27q-68 0 -125.5 17.5t-105.5 46.5t-87 67.5t-65 79.5z" />
<glyph unicode="t" horiz-adv-x="710" d="M57 877v139h185v264h161v-264h228v-139h-228v-553q0 -104 47.5 -145.5t151.5 -41.5h29v-139q-31 -6 -74 -6q-158 0 -237.5 79t-79.5 253v553h-183z" />
<glyph unicode="u" horiz-adv-x="1159" d="M156 383v633h163v-617q0 -137 65 -206.5t181 -69.5q102 0 171 55t91 127v711h164v-1016h-157v137q-20 -31 -51 -59.5t-71 -51t-87 -36t-101 -13.5q-178 0 -273 106.5t-95 299.5z" />
<glyph unicode="v" horiz-adv-x="1040" d="M55 1016h174l234 -656q23 -59 39 -113t16 -77h6q0 23 15.5 77t38.5 113l233 656h174l-385 -1016h-160z" />
<glyph unicode="w" horiz-adv-x="1585" d="M59 1016h174l173 -619q18 -68 33.5 -128t15.5 -83h6q0 23 15.5 83.5t37.5 125.5l195 621h168l194 -621q23 -66 38 -126t15 -83h6q0 23 13.5 83.5t36.5 127.5l172 619h174l-309 -1016h-160l-209 643q-23 66 -37 122t-14 79h-6q0 -23 -15.5 -79t-38.5 -122l-209 -643h-159z " />
<glyph unicode="x" horiz-adv-x="999" d="M49 0v6l338 510l-319 492v8h188l244 -395l243 395h189v-8l-320 -492l338 -510v-6h-188l-262 416l-262 -416h-189z" />
<glyph unicode="y" horiz-adv-x="1028" d="M55 1016h176l234 -582q23 -57 40 -108.5t17 -73.5h6q8 41 20.5 83t35.5 99l217 582h178l-561 -1401h-178l209 487z" />
<glyph unicode="z" horiz-adv-x="923" d="M78 0v115l526 762h-489v139h708v-115l-528 -762h541v-139h-758z" />
<glyph unicode="{" horiz-adv-x="681" d="M57 463v127h97q41 0 66.5 29.5t25.5 78.5v435q0 135 71.5 200.5t188.5 65.5q14 0 46 -1t48 -5v-123h-68q-59 0 -94 -32t-35 -122v-411q0 -150 -133 -179q133 -29 133 -178v-411q0 -90 35 -122t94 -32h68v-123q-16 -4 -48 -5t-46 -1q-117 0 -188.5 65.5t-71.5 200.5v434 q0 49 -25.5 79t-66.5 30h-97z" />
<glyph unicode="|" horiz-adv-x="536" d="M193 -340v1794h151v-1794h-151z" />
<glyph unicode="}" horiz-adv-x="681" d="M82 -217h68q59 0 94 31.5t35 122.5v411q0 150 133 178q-133 29 -133 179v411q0 90 -35 122t-94 32h-68v123q16 4 48 5t46 1q117 0 188.5 -65.5t71.5 -200.5v-435q0 -49 25.5 -78.5t66.5 -29.5h97v-127h-97q-41 0 -66.5 -30t-25.5 -79v-434q0 -135 -71.5 -200.5 t-188.5 -65.5q-14 0 -46 1t-48 5v123z" />
<glyph unicode="~" d="M145 506v153q51 39 106.5 60.5t115.5 21.5q57 0 111 -14t106.5 -31.5t100.5 -32t91 -14.5q53 0 108.5 22.5t112.5 63.5h7v-151q-49 -41 -105.5 -62.5t-116.5 -21.5q-55 0 -108 14t-105.5 31.5t-101.5 32t-94 14.5q-109 0 -221 -86h-7z" />
<glyph unicode="&#xa1;" horiz-adv-x="536" d="M147 772v244h244v-244h-244zM160 -377l45 924h127l45 -924h-217z" />
<glyph unicode="&#xa2;" d="M143 678q0 106 27 196.5t77 159t123.5 112.5t166.5 56v141h141v-139q123 -16 212 -85.5t128 -178.5l-129 -66q-63 158 -217 183v-760q156 29 217 184l129 -65q-39 -111 -128 -179.5t-212 -84.5v-152h-141v152q-92 12 -166 56t-124 112.5t-77 160t-27 197.5zM313 678 q0 -160 60.5 -257t169.5 -122v756q-109 -25 -169.5 -122t-60.5 -255z" />
<glyph unicode="&#xa3;" d="M158 575v142h125q-20 53 -35 117.5t-15 144.5q0 84 28 155.5t79 123t124 80t163 28.5q61 0 119.5 -18.5t108.5 -54.5t89 -88t60 -120l-138 -63q-31 109 -96 152t-143 43q-104 0 -162.5 -68t-58.5 -184q0 -68 17 -126.5t40 -117.5h371v-141h-322q8 -31 13 -64t5 -67 q0 -102 -40.5 -176t-90.5 -128h580v-145h-776v125q37 39 65.5 75t48 72.5t30.5 79.5t11 99q0 33 -6 63.5t-16 60.5h-178z" />
<glyph unicode="&#xa4;" d="M147 254l134 147q-57 92 -58 217q0 125 58 218l-134 147l99 96l129 -145q86 57 198 57q115 0 197 -57l131 145l98 -96l-133 -147q57 -92 58 -218q0 -125 -58 -217l133 -147l-98 -96l-131 143q-80 -55 -197 -55t-198 55l-129 -143zM369 618q0 -106 54 -173.5t150 -67.5 t150.5 67.5t54.5 173.5t-54 174t-151 68q-96 0 -150 -67.5t-54 -174.5z" />
<glyph unicode="&#xa5;" d="M90 1337v6h191l292 -538l293 538h191v-6l-385 -663h260v-125h-277v-154h277v-125h-277v-270h-163v270h-277v125h277v154h-277v125h258z" />
<glyph unicode="&#xa6;" horiz-adv-x="532" d="M190 -338v750h152v-750h-152zM190 705v749h152v-749h-152z" />
<glyph unicode="&#xa7;" horiz-adv-x="1071" d="M102 -33l115 84q18 -39 47 -75.5t69 -65.5t92 -46.5t120 -17.5q106 0 165.5 46.5t59.5 121.5q0 43 -19.5 73t-52 51.5t-78 36.5t-94.5 32l-110 35q-289 88 -289 319q0 156 133 264q-92 88 -92 226q0 63 24.5 120.5t72.5 100.5t116 68.5t154 25.5q129 0 228 -55.5 t150 -147.5l-114 -88q-49 78 -116 113t-144 35q-98 0 -154.5 -48.5t-56.5 -119.5q0 -84 56 -123t153 -70l118 -39q66 -23 123.5 -48t99.5 -62t66.5 -85t24.5 -112q0 -78 -35 -148.5t-107 -119.5q102 -80 103 -223q0 -72 -29 -130.5t-79 -101.5t-121.5 -66.5t-157.5 -23.5 q-92 0 -163 23.5t-124 61.5t-91 85t-63 94zM287 573q0 -82 54 -121.5t136 -62.5l117 -33q51 -14 102 -34q59 29 86 73.5t27 98.5q0 43 -17.5 72.5t-50 51t-76.5 38t-100 32.5l-114 35q-18 4 -36 11t-34 14q-47 -33 -70.5 -79t-23.5 -96z" />
<glyph unicode="&#xa8;" horiz-adv-x="1302" d="M346 1239v205h205v-205h-205zM774 1239v205h205v-205h-205z" />
<glyph unicode="&#xa9;" horiz-adv-x="1581" d="M113 694q0 143 52 267t143 215.5t215 143.5t268 52q143 0 267 -52t215 -143.5t143 -215t52 -267.5q0 -143 -52 -267t-143 -215t-215 -143.5t-267 -52.5t-267.5 52.5t-215.5 143.5t-143 215t-52 267zM244 694q0 -117 42 -217t114.5 -175t173 -117t217.5 -42t217 42 t172.5 117t114.5 175.5t42 216.5q0 117 -42 217.5t-114.5 175t-173 116.5t-216.5 42q-117 0 -217.5 -42t-173 -116.5t-114.5 -175t-42 -217.5zM457 694q0 70 23.5 132.5t68.5 108.5t106.5 73.5t139.5 27.5q102 0 175.5 -44t119.5 -122l-97 -71q-29 51 -77 83.5t-115 32.5 q-96 0 -150.5 -61t-54.5 -160q0 -98 54.5 -159.5t150.5 -61.5q68 0 116 33t76 84l97 -72q-45 -78 -119 -122t-176 -44q-78 0 -139.5 28t-106.5 74t-68.5 108.5t-23.5 131.5z" />
<glyph unicode="&#xaa;" horiz-adv-x="702" d="M115 979q0 74 48 121t134 47q82 0 135 -53v41q0 47 -24.5 79.5t-79.5 32.5q-43 0 -72 -16.5t-45 -36.5l-68 82q25 31 73 55.5t114 24.5q113 0 171 -58.5t58 -150.5v-320h-121v43q-57 -57 -141 -57q-86 0 -134 47t-48 119zM244 979q0 -29 20.5 -51.5t67.5 -22.5 q35 0 60.5 14.5t39.5 36.5v48q-14 23 -39.5 37t-60.5 14q-47 0 -67.5 -23.5t-20.5 -52.5z" />
<glyph unicode="&#xab;" horiz-adv-x="1079" d="M88 592v51l303 363h164v-7l-293 -381l293 -382v-7h-164zM504 592v51l303 363h164v-7l-293 -381l293 -382v-7h-164z" />
<glyph unicode="&#xac;" d="M139 612v148h860v-424h-147v276h-713z" />
<glyph unicode="&#xad;" horiz-adv-x="821" d="M147 545v147h527v-147h-527z" />
<glyph unicode="&#xae;" horiz-adv-x="978" d="M106 1032q0 80 30 150.5t81 122t122 81t150 29.5q80 0 151 -29.5t122 -81t80.5 -122t29.5 -150.5t-29.5 -150.5t-80.5 -121.5t-122 -81t-151 -30t-150.5 30t-121.5 81t-81 121.5t-30 150.5zM199 1032q0 -61 22.5 -115.5t61.5 -94.5t92 -62.5t114 -22.5t114.5 22.5 t92.5 62.5t61.5 94.5t22.5 115.5t-22.5 115.5t-61.5 94.5t-92 62.5t-115 22.5q-61 0 -114 -22.5t-92 -62.5t-61.5 -94t-22.5 -116zM356 860v357h156q53 0 88 -31t35 -84q0 -37 -18.5 -62.5t-49.5 -38.5l101 -135v-6h-101l-90 131h-33v-131h-88zM444 1067h68q39 0 39 35 t-39 35h-68v-70z" />
<glyph unicode="&#xaf;" horiz-adv-x="1304" d="M299 1276v131h600v-131h-600z" />
<glyph unicode="&#xb0;" horiz-adv-x="811" d="M104 1061q0 66 23 121t62.5 96t95 64.5t121.5 23.5t121 -23.5t95 -64.5t62.5 -96t22.5 -121t-22.5 -121t-62.5 -96t-95.5 -64.5t-120.5 -23.5q-66 0 -121.5 23.5t-95 64.5t-62.5 96t-23 121zM240 1061q0 -76 46 -127t120 -51t119.5 51t45.5 127t-46 127t-119 51 q-74 0 -120 -51t-46 -127z" />
<glyph unicode="&#xb1;" d="M143 756v147h357v361h147v-361h357v-147h-357v-334h-147v334h-357zM145 125v147h859v-147h-859z" />
<glyph unicode="&#xb4;" horiz-adv-x="1388" d="M485 1186v6l177 305h182v-6l-221 -305h-138z" />
<glyph unicode="&#xb6;" horiz-adv-x="1071" d="M59 1055q0 164 88.5 251t227.5 87h217v-1733h-129v1055h-88q-139 0 -227.5 87t-88.5 253zM733 -340v1733h129v-1733h-129z" />
<glyph unicode="&#xb7;" horiz-adv-x="538" d="M147 496v243h244v-243h-244z" />
<glyph unicode="&#xb8;" horiz-adv-x="1372" d="M471 -322l45 97q47 -29 96 -29q41 0 62.5 20.5t21.5 53.5q0 53 -47 93t-139 87l139 23q98 -49 142.5 -104.5t44.5 -121.5q0 -74 -56.5 -120t-150.5 -46q-51 0 -90 13.5t-68 33.5z" />
<glyph unicode="&#xba;" horiz-adv-x="724" d="M109 1085q0 119 68.5 196t184.5 77q117 0 185.5 -77t68.5 -196t-68.5 -195.5t-185.5 -76.5t-185 77t-68 195zM240 1085q0 -72 30.5 -117.5t91.5 -45.5t92 46t31 117q0 72 -31 118t-92 46t-91.5 -46t-30.5 -118z" />
<glyph unicode="&#xbb;" horiz-adv-x="1077" d="M106 229v7l293 380l-293 383v7h164l303 -363v-51l-303 -363h-164zM522 229v7l293 380l-293 383v7h164l303 -363v-51l-303 -363h-164z" />
<glyph unicode="&#xbc;" horiz-adv-x="1363" d="M62 1212l223 132h94v-705h-129v559l-141 -86zM256 0l629 1343h141l-627 -1343h-143zM729 178v92l291 435h160v-429h112v-98h-112v-178h-130v178h-321zM858 276h192v125q0 61 3.5 114.5t9.5 74.5h-6q-8 -20 -36 -66.5t-61 -95.5z" />
<glyph unicode="&#xbd;" horiz-adv-x="1390" d="M62 1212l223 132h94v-705h-129v559l-141 -86zM256 0l629 1343h141l-627 -1343h-143zM825 0v96q31 66 86.5 115t108.5 94t93 89t40 98q0 47 -23.5 77.5t-76.5 30.5q-92 0 -123 -111l-102 50q10 31 27.5 62.5t46 57t67.5 43t92 17.5q109 0 168 -63.5t59 -157.5 q0 -80 -37.5 -136.5t-87 -99.5t-98.5 -76.5t-74 -70.5h303v-115h-469z" />
<glyph unicode="&#xbe;" horiz-adv-x="1472" d="M68 741l76 91q27 -31 66.5 -60t101.5 -29q59 0 96 27t37 78q0 104 -133 104h-68v107h68q51 0 74.5 27.5t23.5 64.5q0 45 -27.5 66.5t-68.5 21.5q-49 0 -79 -18.5t-46 -44.5l-84 79q33 41 81 72t134 31q106 0 165.5 -50.5t59.5 -142.5q0 -47 -24.5 -87t-65.5 -64 q61 -18 93 -64.5t32 -109.5q0 -49 -20.5 -89t-57.5 -68t-86 -43t-104 -15q-90 0 -150.5 38.5t-93.5 77.5zM375 0l629 1343h141l-627 -1343h-143zM842 178v92l291 435h160v-429h112v-98h-112v-178h-130v178h-321zM971 276h192v125q0 61 3.5 114.5t9.5 74.5h-6 q-8 -20 -36 -66.5t-61 -95.5z" />
<glyph unicode="&#xbf;" horiz-adv-x="880" d="M74 -65q0 59 14.5 106t38 86t55 73t64.5 66l86 84q27 25 44 46.5t28.5 44t14.5 48t1 58.5h152q31 -88 -10.5 -167t-114.5 -148l-84 -82q-51 -57 -84 -101.5t-33 -103.5q0 -86 55.5 -139.5t153.5 -53.5t155.5 53.5t73.5 141.5l140 -51q-12 -57 -42 -110.5t-76 -94.5 t-109.5 -65.5t-147.5 -24.5q-86 0 -156 24.5t-119 68.5t-74.5 105.5t-25.5 135.5zM369 772v244h244v-244h-244z" />
<glyph unicode="&#xc0;" horiz-adv-x="1261" d="M25 0l512 1393h190l510 -1393h-182l-125 350h-600l-123 -350h-182zM360 1858v6h183l176 -305v-6h-138zM381 496h498l-191 544q-23 61 -38 115.5t-15 77.5h-6q0 -23 -16.5 -77t-39.5 -116z" />
<glyph unicode="&#xc1;" horiz-adv-x="1261" d="M25 0l512 1393h190l510 -1393h-182l-125 350h-600l-123 -350h-182zM381 496h498l-191 544q-23 61 -38 115.5t-15 77.5h-6q0 -23 -16.5 -77t-39.5 -116zM548 1553v6l177 305h182v-6l-221 -305h-138z" />
<glyph unicode="&#xc2;" horiz-adv-x="1261" d="M25 0l512 1393h190l510 -1393h-182l-125 350h-600l-123 -350h-182zM308 1553v6l256 305h143l254 -305v-6h-150l-176 182l-176 -182h-151zM381 496h498l-191 544q-23 61 -38 115.5t-15 77.5h-6q0 -23 -16.5 -77t-39.5 -116z" />
<glyph unicode="&#xc3;" horiz-adv-x="1261" d="M25 0l512 1393h190l510 -1393h-182l-125 350h-600l-123 -350h-182zM315 1639q55 188 201 188q47 0 81 -16.5t61.5 -34.5t52 -34.5t53.5 -16.5q35 0 56.5 28.5t35.5 69.5l113 -51q-55 -188 -201 -188q-47 0 -81 16t-61.5 34.5t-52 35t-53.5 16.5q-35 0 -56.5 -28.5 t-35.5 -69.5zM381 496h498l-191 544q-23 61 -38 115.5t-15 77.5h-6q0 -23 -16.5 -77t-39.5 -116z" />
<glyph unicode="&#xc4;" horiz-adv-x="1261" d="M25 0l512 1393h190l510 -1393h-182l-125 350h-600l-123 -350h-182zM317 1606v205h205v-205h-205zM381 496h498l-191 544q-23 61 -38 115.5t-15 77.5h-6q0 -23 -16.5 -77t-39.5 -116zM745 1606v205h205v-205h-205z" />
<glyph unicode="&#xc5;" horiz-adv-x="1261" d="M25 0l512 1393h190l510 -1393h-182l-125 350h-600l-123 -350h-182zM381 496h498l-191 544q-23 61 -38 115.5t-15 77.5h-6q0 -23 -16.5 -77t-39.5 -116zM422 1548q0 90 61.5 146.5t149.5 56.5t149.5 -56.5t61.5 -146.5q0 -88 -61.5 -145.5t-149.5 -57.5t-149.5 57.5 t-61.5 145.5zM535 1548q0 -43 27.5 -70.5t72.5 -27.5q41 0 69 27.5t28 70.5t-28 70.5t-69 27.5q-45 0 -72.5 -27.5t-27.5 -70.5z" />
<glyph unicode="&#xc6;" horiz-adv-x="1759" d="M-14 0v6l776 1387h878v-146h-643v-471h559v-145h-559v-486h643v-145h-813v344h-462l-187 -344h-192zM444 489h383v498q0 66 2 123t9 111h-7q-6 -20 -35.5 -81t-66.5 -126z" />
<glyph unicode="&#xc7;" horiz-adv-x="1363" d="M113 696q0 162 46 295t127 227.5t193.5 145.5t247.5 51q102 0 190.5 -27.5t159 -76.5t122.5 -119t83 -156l-145 -67q-53 143 -155.5 219t-252.5 76q-98 0 -180 -39t-139.5 -112t-89 -178.5t-31.5 -238.5t31.5 -238.5t89 -178t139.5 -111.5t180 -39q150 0 252 76t156 219 l145 -68q-31 -86 -83 -155.5t-122.5 -118.5t-159 -77t-190.5 -28q-135 0 -247.5 51.5t-193.5 145.5t-127 227t-46 295zM539 -324l45 99q45 -31 96 -31q43 0 63.5 20.5t20.5 55.5q0 53 -47 93t-139 87l141 25q98 -51 143.5 -106.5t45.5 -121.5q0 -76 -56.5 -122t-154.5 -46 q-51 0 -90 12.5t-68 34.5z" />
<glyph unicode="&#xc8;" horiz-adv-x="1169" d="M205 0v1393h848v-146h-678v-471h581v-145h-581v-486h678v-145h-848zM356 1858v6h183l176 -305v-6h-138z" />
<glyph unicode="&#xc9;" horiz-adv-x="1169" d="M205 0v1393h848v-146h-678v-471h581v-145h-581v-486h678v-145h-848zM544 1553v6l177 305h182v-6l-221 -305h-138z" />
<glyph unicode="&#xca;" horiz-adv-x="1169" d="M205 0v1393h848v-146h-678v-471h581v-145h-581v-486h678v-145h-848zM304 1553v6l256 305h143l254 -305v-6h-150l-176 182l-176 -182h-151z" />
<glyph unicode="&#xcb;" horiz-adv-x="1169" d="M205 0v1393h848v-146h-678v-471h581v-145h-581v-486h678v-145h-848zM313 1606v205h205v-205h-205zM741 1606v205h205v-205h-205z" />
<glyph unicode="&#xcc;" horiz-adv-x="579" d="M18 1858v6h183l176 -305v-6h-138zM205 0v1393h170v-1393h-170z" />
<glyph unicode="&#xcd;" horiz-adv-x="579" d="M205 0v1393h170v-1393h-170zM209 1553v6l177 305h182v-6l-221 -305h-138z" />
<glyph unicode="&#xce;" horiz-adv-x="579" d="M-34 1553v6l256 305h143l254 -305v-6h-150l-176 182l-176 -182h-151zM205 0v1393h170v-1393h-170z" />
<glyph unicode="&#xcf;" horiz-adv-x="579" d="M-25 1606v205h205v-205h-205zM205 0v1393h170v-1393h-170zM403 1606v205h205v-205h-205z" />
<glyph unicode="&#xd0;" horiz-adv-x="1445" d="M35 635v135h186v623h477q135 0 251 -46.5t201 -134.5t133 -218t48 -298t-48 -298t-133 -218t-200.5 -134t-251.5 -46h-477v635h-186zM391 145h295q106 0 192.5 35t147.5 104.5t95 173t34 238.5t-34 238.5t-95 173.5t-147 104.5t-193 34.5h-295v-477h344v-135h-344v-490z " />
<glyph unicode="&#xd1;" horiz-adv-x="1497" d="M205 0v1393h149l664 -947q41 -55 71.5 -104t38.5 -72h7q-6 23 -9.5 82.5t-3.5 128.5v912h170v-1393h-149l-664 946q-41 55 -71.5 104.5t-38.5 71.5h-7q6 -23 9.5 -82t3.5 -129v-911h-170zM436 1639q55 188 201 188q47 0 81 -16.5t61.5 -34.5t52 -34.5t53.5 -16.5 q35 0 56.5 28.5t35.5 69.5l113 -51q-55 -188 -201 -188q-47 0 -81 16t-61.5 34.5t-52 35t-53.5 16.5q-35 0 -56.5 -28.5t-35.5 -69.5z" />
<glyph unicode="&#xd2;" horiz-adv-x="1486" d="M113 696q0 162 46 295t129 227.5t198.5 145.5t254.5 51q141 0 258 -51t200 -145.5t129 -227.5t46 -295t-46 -295t-129 -227t-199.5 -145.5t-258.5 -51.5q-139 0 -254.5 51.5t-198.5 145.5t-129 227.5t-46 294.5zM289 696q0 -133 32.5 -238.5t92 -178t143.5 -111.5 t186 -39t186.5 39t144 111.5t92 178t32.5 238.5t-32.5 238.5t-92 178.5t-144 112t-186.5 39t-186 -39t-143.5 -112t-92 -178.5t-32.5 -238.5zM469 1858v6h183l176 -305v-6h-138z" />
<glyph unicode="&#xd3;" horiz-adv-x="1486" d="M113 696q0 162 46 295t129 227.5t198.5 145.5t254.5 51q141 0 258 -51t200 -145.5t129 -227.5t46 -295t-46 -295t-129 -227t-199.5 -145.5t-258.5 -51.5q-139 0 -254.5 51.5t-198.5 145.5t-129 227.5t-46 294.5zM289 696q0 -133 32.5 -238.5t92 -178t143.5 -111.5 t186 -39t186.5 39t144 111.5t92 178t32.5 238.5t-32.5 238.5t-92 178.5t-144 112t-186.5 39t-186 -39t-143.5 -112t-92 -178.5t-32.5 -238.5zM657 1553v6l177 305h182v-6l-221 -305h-138z" />
<glyph unicode="&#xd4;" horiz-adv-x="1486" d="M113 696q0 162 46 295t129 227.5t198.5 145.5t254.5 51q141 0 258 -51t200 -145.5t129 -227.5t46 -295t-46 -295t-129 -227t-199.5 -145.5t-258.5 -51.5q-139 0 -254.5 51.5t-198.5 145.5t-129 227.5t-46 294.5zM289 696q0 -133 32.5 -238.5t92 -178t143.5 -111.5 t186 -39t186.5 39t144 111.5t92 178t32.5 238.5t-32.5 238.5t-92 178.5t-144 112t-186.5 39t-186 -39t-143.5 -112t-92 -178.5t-32.5 -238.5zM414 1553v6l256 305h143l254 -305v-6h-150l-176 182l-176 -182h-151z" />
<glyph unicode="&#xd5;" horiz-adv-x="1486" d="M113 696q0 162 46 295t129 227.5t198.5 145.5t254.5 51q141 0 258 -51t200 -145.5t129 -227.5t46 -295t-46 -295t-129 -227t-199.5 -145.5t-258.5 -51.5q-139 0 -254.5 51.5t-198.5 145.5t-129 227.5t-46 294.5zM289 696q0 -133 32.5 -238.5t92 -178t143.5 -111.5 t186 -39t186.5 39t144 111.5t92 178t32.5 238.5t-32.5 238.5t-92 178.5t-144 112t-186.5 39t-186 -39t-143.5 -112t-92 -178.5t-32.5 -238.5zM424 1639q55 188 201 188q47 0 81 -16.5t61.5 -34.5t52 -34.5t53.5 -16.5q35 0 56.5 28.5t35.5 69.5l113 -51q-55 -188 -201 -188 q-47 0 -81 16t-61.5 34.5t-52 35t-53.5 16.5q-35 0 -56.5 -28.5t-35.5 -69.5z" />
<glyph unicode="&#xd6;" horiz-adv-x="1486" d="M113 696q0 162 46 295t129 227.5t198.5 145.5t254.5 51q141 0 258 -51t200 -145.5t129 -227.5t46 -295t-46 -295t-129 -227t-199.5 -145.5t-258.5 -51.5q-139 0 -254.5 51.5t-198.5 145.5t-129 227.5t-46 294.5zM289 696q0 -133 32.5 -238.5t92 -178t143.5 -111.5 t186 -39t186.5 39t144 111.5t92 178t32.5 238.5t-32.5 238.5t-92 178.5t-144 112t-186.5 39t-186 -39t-143.5 -112t-92 -178.5t-32.5 -238.5zM424 1606v205h205v-205h-205zM852 1606v205h205v-205h-205z" />
<glyph unicode="&#xd7;" d="M176 328l291 290l-291 293l105 105l290 -293l293 293l105 -105l-293 -293l293 -290l-105 -105l-293 291l-290 -291z" />
<glyph unicode="&#xd8;" horiz-adv-x="1488" d="M115 696q0 162 46 295t129 227.5t198.5 145.5t254.5 51q145 0 267 -55l57 113h152v-7l-93 -178q117 -92 183.5 -243.5t66.5 -348.5q0 -162 -46 -295t-129 -227t-199.5 -145.5t-258.5 -51.5q-150 0 -272 60l-59 -117h-150v6l96 183q-117 94 -180 243.5t-63 343.5zM291 696 q0 -145 38 -255.5t107 -184.5l500 967q-86 41 -191 41q-102 0 -186 -39t-143.5 -112t-92 -178.5t-32.5 -238.5zM545 174q94 -45 200 -45q102 0 186.5 39t144 111.5t92 178t32.5 238.5q0 147 -40 261t-111 186z" />
<glyph unicode="&#xd9;" horiz-adv-x="1400" d="M186 524v869h170v-854q0 -193 85 -301.5t259 -108.5t259 108.5t85 301.5v854h170v-869q0 -121 -33.5 -222t-99 -173t-162 -112t-219.5 -40t-219 40t-161.5 112t-99.5 173t-34 222zM430 1858v6h183l176 -305v-6h-138z" />
<glyph unicode="&#xda;" horiz-adv-x="1400" d="M186 524v869h170v-854q0 -193 85 -301.5t259 -108.5t259 108.5t85 301.5v854h170v-869q0 -121 -33.5 -222t-99 -173t-162 -112t-219.5 -40t-219 40t-161.5 112t-99.5 173t-34 222zM618 1553v6l177 305h182v-6l-221 -305h-138z" />
<glyph unicode="&#xdb;" horiz-adv-x="1400" d="M186 524v869h170v-854q0 -193 85 -301.5t259 -108.5t259 108.5t85 301.5v854h170v-869q0 -121 -33.5 -222t-99 -173t-162 -112t-219.5 -40t-219 40t-161.5 112t-99.5 173t-34 222zM375 1553v6l256 305h143l254 -305v-6h-150l-176 182l-176 -182h-151z" />
<glyph unicode="&#xdc;" horiz-adv-x="1400" d="M186 524v869h170v-854q0 -193 85 -301.5t259 -108.5t259 108.5t85 301.5v854h170v-869q0 -121 -33.5 -222t-99 -173t-162 -112t-219.5 -40t-219 40t-161.5 112t-99.5 173t-34 222zM385 1606v205h205v-205h-205zM813 1606v205h205v-205h-205z" />
<glyph unicode="&#xdd;" horiz-adv-x="1167" d="M23 1386v7h198l363 -629l362 629h199v-7l-477 -765v-621h-170v625zM499 1553v6l177 305h182v-6l-221 -305h-138z" />
<glyph unicode="&#xde;" horiz-adv-x="1169" d="M205 0v1393h170v-277h266q209 0 326.5 -106.5t117.5 -304.5q0 -199 -117.5 -305.5t-326.5 -106.5h-266v-293h-170zM375 438h246q289 0 288 267q0 129 -71.5 197.5t-216.5 68.5h-246v-533z" />
<glyph unicode="&#xdf;" horiz-adv-x="1179" d="M168 0v1077q0 90 27.5 164t78 126t121 81t158.5 29t160.5 -30t123 -79t78 -113.5t27.5 -136.5q0 -98 -39 -169.5t-110 -112.5q129 -37 207.5 -143.5t78.5 -268.5q0 -104 -34.5 -187t-94 -140.5t-138.5 -87t-165 -29.5q-47 0 -84 6t-82 20l29 141q59 -23 125 -22 q135 0 204.5 84t69.5 223t-77.5 222t-221.5 83h-75v140h8q61 0 105 19t72 51t40 73t12 86q0 94 -54 159.5t-167 65.5q-98 0 -158.5 -61.5t-60.5 -177.5v-1094z" />
<glyph unicode="&#xe0;" horiz-adv-x="1067" d="M90 311q0 70 26.5 130.5t75 105.5t118 71.5t155.5 26.5q80 0 153.5 -29.5t129.5 -89.5v103q0 111 -60.5 187.5t-187.5 76.5q-90 0 -145.5 -31t-110.5 -84l-94 107q27 29 60.5 56.5t76.5 49t96 34.5t121 13q100 0 176 -28.5t127 -80.5t77.5 -126t26.5 -162v-641h-157v100 q-57 -61 -132 -92t-157 -31q-86 0 -155.5 27t-118 72t-75 105.5t-26.5 129.5zM252 1511v6h183l176 -305v-6h-138zM256 311q0 -35 13.5 -69.5t41 -63t71.5 -46t105 -17.5q70 0 145 28.5t116 98.5v139q-41 68 -116 97.5t-145 29.5q-61 0 -105 -17.5t-71.5 -46t-41 -63.5 t-13.5 -70z" />
<glyph unicode="&#xe1;" horiz-adv-x="1067" d="M90 311q0 70 26.5 130.5t75 105.5t118 71.5t155.5 26.5q80 0 153.5 -29.5t129.5 -89.5v103q0 111 -60.5 187.5t-187.5 76.5q-90 0 -145.5 -31t-110.5 -84l-94 107q27 29 60.5 56.5t76.5 49t96 34.5t121 13q100 0 176 -28.5t127 -80.5t77.5 -126t26.5 -162v-641h-157v100 q-57 -61 -132 -92t-157 -31q-86 0 -155.5 27t-118 72t-75 105.5t-26.5 129.5zM256 311q0 -35 13.5 -69.5t41 -63t71.5 -46t105 -17.5q70 0 145 28.5t116 98.5v139q-41 68 -116 97.5t-145 29.5q-61 0 -105 -17.5t-71.5 -46t-41 -63.5t-13.5 -70zM442 1206v6l177 305h182v-6 l-221 -305h-138z" />
<glyph unicode="&#xe2;" horiz-adv-x="1067" d="M90 311q0 70 26.5 130.5t75 105.5t118 71.5t155.5 26.5q80 0 153.5 -29.5t129.5 -89.5v103q0 111 -60.5 187.5t-187.5 76.5q-90 0 -145.5 -31t-110.5 -84l-94 107q27 29 60.5 56.5t76.5 49t96 34.5t121 13q100 0 176 -28.5t127 -80.5t77.5 -126t26.5 -162v-641h-157v100 q-57 -61 -132 -92t-157 -31q-86 0 -155.5 27t-118 72t-75 105.5t-26.5 129.5zM199 1206v6l256 305h143l254 -305v-6h-150l-176 182l-176 -182h-151zM256 311q0 -35 13.5 -69.5t41 -63t71.5 -46t105 -17.5q70 0 145 28.5t116 98.5v139q-41 68 -116 97.5t-145 29.5 q-61 0 -105 -17.5t-71.5 -46t-41 -63.5t-13.5 -70z" />
<glyph unicode="&#xe3;" horiz-adv-x="1067" d="M90 311q0 70 26.5 130.5t75 105.5t118 71.5t155.5 26.5q80 0 153.5 -29.5t129.5 -89.5v103q0 111 -60.5 187.5t-187.5 76.5q-90 0 -145.5 -31t-110.5 -84l-94 107q27 29 60.5 56.5t76.5 49t96 34.5t121 13q100 0 176 -28.5t127 -80.5t77.5 -126t26.5 -162v-641h-157v100 q-57 -61 -132 -92t-157 -31q-86 0 -155.5 27t-118 72t-75 105.5t-26.5 129.5zM208 1292q55 188 201 188q47 0 81 -16.5t61.5 -34.5t52 -34.5t53.5 -16.5q35 0 56.5 28.5t35.5 69.5l113 -51q-55 -188 -201 -188q-47 0 -81 16t-61.5 34.5t-52 35t-53.5 16.5q-35 0 -56.5 -28.5 t-35.5 -69.5zM256 311q0 -35 13.5 -69.5t41 -63t71.5 -46t105 -17.5q70 0 145 28.5t116 98.5v139q-41 68 -116 97.5t-145 29.5q-61 0 -105 -17.5t-71.5 -46t-41 -63.5t-13.5 -70z" />
<glyph unicode="&#xe4;" horiz-adv-x="1067" d="M90 311q0 70 26.5 130.5t75 105.5t118 71.5t155.5 26.5q80 0 153.5 -29.5t129.5 -89.5v103q0 111 -60.5 187.5t-187.5 76.5q-90 0 -145.5 -31t-110.5 -84l-94 107q27 29 60.5 56.5t76.5 49t96 34.5t121 13q100 0 176 -28.5t127 -80.5t77.5 -126t26.5 -162v-641h-157v100 q-57 -61 -132 -92t-157 -31q-86 0 -155.5 27t-118 72t-75 105.5t-26.5 129.5zM209 1259v205h205v-205h-205zM256 311q0 -35 13.5 -69.5t41 -63t71.5 -46t105 -17.5q70 0 145 28.5t116 98.5v139q-41 68 -116 97.5t-145 29.5q-61 0 -105 -17.5t-71.5 -46t-41 -63.5t-13.5 -70z M637 1259v205h205v-205h-205z" />
<glyph unicode="&#xe5;" horiz-adv-x="1067" d="M90 311q0 70 26.5 130.5t75 105.5t118 71.5t155.5 26.5q80 0 153.5 -29.5t129.5 -89.5v103q0 111 -60.5 187.5t-187.5 76.5q-90 0 -145.5 -31t-110.5 -84l-94 107q27 29 60.5 56.5t76.5 49t96 34.5t121 13q100 0 176 -28.5t127 -80.5t77.5 -126t26.5 -162v-641h-157v100 q-57 -61 -132 -92t-157 -31q-86 0 -155.5 27t-118 72t-75 105.5t-26.5 129.5zM256 311q0 -35 13.5 -69.5t41 -63t71.5 -46t105 -17.5q70 0 145 28.5t116 98.5v139q-41 68 -116 97.5t-145 29.5q-61 0 -105 -17.5t-71.5 -46t-41 -63.5t-13.5 -70zM313 1390q0 90 61.5 146.5 t149.5 56.5t149.5 -56.5t61.5 -146.5q0 -88 -61.5 -145.5t-149.5 -57.5t-149.5 57.5t-61.5 145.5zM426 1390q0 -43 27.5 -70.5t72.5 -27.5q41 0 69 27.5t28 70.5t-28 70.5t-69 27.5q-45 0 -72.5 -27.5t-27.5 -70.5z" />
<glyph unicode="&#xe6;" horiz-adv-x="1708" d="M90 293q0 141 101.5 226t275.5 85h264v25q0 111 -56.5 187.5t-172.5 76.5q-156 0 -256 -129l-101 100q51 68 139.5 121t221.5 53q121 0 204 -47t126 -133q59 86 145 133t201 47q98 0 178 -37.5t136 -104.5t87 -159t31 -200q0 -39 -6 -70h-707q10 -164 86 -254t211 -90 q92 0 162 40t115 116l108 -93q-57 -90 -152.5 -149.5t-242.5 -59.5q-119 0 -209 45.5t-150 129.5q-70 -82 -159.5 -128.5t-210.5 -46.5q-86 0 -153.5 25t-116 68t-74 100t-25.5 123zM256 293q0 -31 11.5 -62.5t38 -57.5t66.5 -42t99 -16q88 0 162 36.5t133 124.5 q-16 43 -23.5 92.5t-11.5 102.5h-242q-127 0 -180 -50t-53 -128zM907 604h535q-10 135 -79.5 212t-180.5 77q-113 0 -184.5 -75t-90.5 -214z" />
<glyph unicode="&#xe7;" horiz-adv-x="1062" d="M104 508q0 117 32 215t92.5 168t147.5 108.5t197 38.5q145 0 254 -72.5t152 -195.5l-129 -65q-35 92 -106.5 140t-170.5 48q-137 0 -218 -101.5t-81 -283.5t81 -283.5t218 -101.5q98 0 170 48t107 140l129 -65q-43 -123 -151.5 -196t-254.5 -73q-111 0 -197.5 39 t-147 109t-92.5 168t-32 215zM401 -322l45 97q47 -29 96 -29q41 0 62.5 20.5t21.5 53.5q0 53 -47 93t-139 87l139 23q98 -49 142.5 -104.5t44.5 -121.5q0 -74 -56.5 -120t-150.5 -46q-51 0 -90 13.5t-68 33.5z" />
<glyph unicode="&#xe8;" horiz-adv-x="1101" d="M104 508q0 121 33 219t93.5 167t145.5 106.5t189 37.5q102 0 184 -37.5t139.5 -104.5t88.5 -159t31 -200q0 -43 -7 -80h-725q10 -160 90 -247t216 -87q94 0 167.5 39t118.5 110l111 -92q-57 -86 -156.5 -144.5t-251.5 -58.5q-109 0 -194.5 37t-146 106.5t-93.5 167 t-33 220.5zM279 596h557q-8 137 -81 217t-190 80t-192.5 -77t-93.5 -220zM295 1511v6h183l176 -305v-6h-138z" />
<glyph unicode="&#xe9;" horiz-adv-x="1101" d="M104 508q0 121 33 219t93.5 167t145.5 106.5t189 37.5q102 0 184 -37.5t139.5 -104.5t88.5 -159t31 -200q0 -43 -7 -80h-725q10 -160 90 -247t216 -87q94 0 167.5 39t118.5 110l111 -92q-57 -86 -156.5 -144.5t-251.5 -58.5q-109 0 -194.5 37t-146 106.5t-93.5 167 t-33 220.5zM279 596h557q-8 137 -81 217t-190 80t-192.5 -77t-93.5 -220zM485 1206v6l177 305h182v-6l-221 -305h-138z" />
<glyph unicode="&#xea;" horiz-adv-x="1101" d="M104 508q0 121 33 219t93.5 167t145.5 106.5t189 37.5q102 0 184 -37.5t139.5 -104.5t88.5 -159t31 -200q0 -43 -7 -80h-725q10 -160 90 -247t216 -87q94 0 167.5 39t118.5 110l111 -92q-57 -86 -156.5 -144.5t-251.5 -58.5q-109 0 -194.5 37t-146 106.5t-93.5 167 t-33 220.5zM242 1206v6l256 305h143l254 -305v-6h-150l-176 182l-176 -182h-151zM279 596h557q-8 137 -81 217t-190 80t-192.5 -77t-93.5 -220z" />
<glyph unicode="&#xeb;" horiz-adv-x="1101" d="M104 508q0 121 33 219t93.5 167t145.5 106.5t189 37.5q102 0 184 -37.5t139.5 -104.5t88.5 -159t31 -200q0 -43 -7 -80h-725q10 -160 90 -247t216 -87q94 0 167.5 39t118.5 110l111 -92q-57 -86 -156.5 -144.5t-251.5 -58.5q-109 0 -194.5 37t-146 106.5t-93.5 167 t-33 220.5zM252 1259v205h205v-205h-205zM279 596h557q-8 137 -81 217t-190 80t-192.5 -77t-93.5 -220zM680 1259v205h205v-205h-205z" />
<glyph unicode="&#xec;" horiz-adv-x="499" d="M-23 1511v6h183l176 -305v-6h-138zM168 0v1016h164v-1016h-164z" />
<glyph unicode="&#xed;" horiz-adv-x="499" d="M168 0v1016h164v-1016h-164zM168 1206v6l177 305h182v-6l-221 -305h-138z" />
<glyph unicode="&#xee;" horiz-adv-x="499" d="M-75 1206v6l256 305h143l254 -305v-6h-150l-176 182l-176 -182h-151zM168 0v1016h164v-1016h-164z" />
<glyph unicode="&#xef;" horiz-adv-x="499" d="M-66 1259v205h205v-205h-205zM168 0v1016h164v-1016h-164zM362 1259v205h205v-205h-205z" />
<glyph unicode="&#xf0;" horiz-adv-x="1140" d="M104 487q0 113 34 206t90.5 157.5t132 100.5t161.5 36t151.5 -29.5t119.5 -87.5q-66 152 -189 295l-231 -86l-41 115l182 70q-47 47 -98 92t-109 92v6h219q39 -29 76 -62.5t72 -68.5l221 84l39 -117l-172 -65q123 -152 197.5 -331t74.5 -366q0 -127 -32.5 -228t-92 -173 t-146.5 -111t-194 -39q-109 0 -194.5 38t-145 106.5t-92.5 162t-33 203.5zM274 481q0 -90 22.5 -156.5t62.5 -111.5t94.5 -67.5t115.5 -22.5t115.5 23.5t94.5 72.5t62.5 126t22.5 181q0 35 -3 69t-7 67q-57 102 -134 142t-157 40q-61 0 -113.5 -25.5t-91.5 -73t-61.5 -115 t-22.5 -149.5z" />
<glyph unicode="&#xf1;" horiz-adv-x="1159" d="M168 0v1016h158v-139q20 31 51 59.5t70.5 51t87 36.5t100.5 14q178 0 273.5 -106.5t95.5 -298.5v-633h-164v616q0 137 -64.5 207t-181.5 70q-104 0 -172 -55.5t-90 -126.5v-711h-164zM270 1292q55 188 201 188q47 0 81 -16.5t61.5 -34.5t52 -34.5t53.5 -16.5 q35 0 56.5 28.5t35.5 69.5l113 -51q-55 -188 -201 -188q-47 0 -81 16t-61.5 34.5t-52 35t-53.5 16.5q-35 0 -56.5 -28.5t-35.5 -69.5z" />
<glyph unicode="&#xf2;" horiz-adv-x="1163" d="M102 508q0 117 34 215t96.5 168t151.5 108.5t198 38.5t197.5 -38.5t151 -108.5t96.5 -168t34 -215t-34 -215t-96.5 -168t-151.5 -109t-197 -39q-109 0 -198 39t-151.5 109t-96.5 168t-34 215zM272 508q0 -182 84.5 -283.5t225.5 -101.5t225 101.5t84 283.5t-84 283.5 t-225 101.5t-225.5 -101.5t-84.5 -283.5zM309 1511v6h183l176 -305v-6h-138z" />
<glyph unicode="&#xf3;" horiz-adv-x="1163" d="M102 508q0 117 34 215t96.5 168t151.5 108.5t198 38.5t197.5 -38.5t151 -108.5t96.5 -168t34 -215t-34 -215t-96.5 -168t-151.5 -109t-197 -39q-109 0 -198 39t-151.5 109t-96.5 168t-34 215zM272 508q0 -182 84.5 -283.5t225.5 -101.5t225 101.5t84 283.5t-84 283.5 t-225 101.5t-225.5 -101.5t-84.5 -283.5zM497 1206v6l177 305h182v-6l-221 -305h-138z" />
<glyph unicode="&#xf4;" horiz-adv-x="1163" d="M102 508q0 117 34 215t96.5 168t151.5 108.5t198 38.5t197.5 -38.5t151 -108.5t96.5 -168t34 -215t-34 -215t-96.5 -168t-151.5 -109t-197 -39q-109 0 -198 39t-151.5 109t-96.5 168t-34 215zM256 1206v6l256 305h143l254 -305v-6h-150l-176 182l-176 -182h-151zM272 508 q0 -182 84.5 -283.5t225.5 -101.5t225 101.5t84 283.5t-84 283.5t-225 101.5t-225.5 -101.5t-84.5 -283.5z" />
<glyph unicode="&#xf5;" horiz-adv-x="1163" d="M102 508q0 117 34 215t96.5 168t151.5 108.5t198 38.5t197.5 -38.5t151 -108.5t96.5 -168t34 -215t-34 -215t-96.5 -168t-151.5 -109t-197 -39q-109 0 -198 39t-151.5 109t-96.5 168t-34 215zM266 1292q55 188 201 188q47 0 81 -16.5t61.5 -34.5t52 -34.5t53.5 -16.5 q35 0 56.5 28.5t35.5 69.5l113 -51q-55 -188 -201 -188q-47 0 -81 16t-61.5 34.5t-52 35t-53.5 16.5q-35 0 -56.5 -28.5t-35.5 -69.5zM272 508q0 -182 84.5 -283.5t225.5 -101.5t225 101.5t84 283.5t-84 283.5t-225 101.5t-225.5 -101.5t-84.5 -283.5z" />
<glyph unicode="&#xf6;" horiz-adv-x="1163" d="M102 508q0 117 34 215t96.5 168t151.5 108.5t198 38.5t197.5 -38.5t151 -108.5t96.5 -168t34 -215t-34 -215t-96.5 -168t-151.5 -109t-197 -39q-109 0 -198 39t-151.5 109t-96.5 168t-34 215zM266 1259v205h205v-205h-205zM272 508q0 -182 84.5 -283.5t225.5 -101.5 t225 101.5t84 283.5t-84 283.5t-225 101.5t-225.5 -101.5t-84.5 -283.5zM694 1259v205h205v-205h-205z" />
<glyph unicode="&#xf7;" d="M145 545v147h859v-147h-859zM469 156v213h213v-213h-213zM469 870v213h213v-213h-213z" />
<glyph unicode="&#xf8;" horiz-adv-x="1163" d="M102 508q0 117 34 215t96.5 168t151.5 108.5t198 38.5q53 0 100 -10t90 -27l53 99h148v-6l-86 -162q84 -72 129 -180.5t45 -243.5q0 -117 -34 -215t-96.5 -168t-151.5 -109t-197 -39q-104 0 -191 35l-51 -98h-150v6l86 164q-84 70 -129 178.5t-45 245.5zM272 508 q0 -184 86 -287l342 649q-57 23 -118 23q-141 0 -225.5 -101.5t-84.5 -283.5zM463 143q49 -20 119 -20q141 0 225 101.5t84 283.5t-86 287z" />
<glyph unicode="&#xf9;" horiz-adv-x="1159" d="M156 383v633h163v-617q0 -137 65 -206.5t181 -69.5q102 0 171 55t91 127v711h164v-1016h-157v137q-20 -31 -51 -59.5t-71 -51t-87 -36t-101 -13.5q-178 0 -273 106.5t-95 299.5zM301 1511v6h183l176 -305v-6h-138z" />
<glyph unicode="&#xfa;" horiz-adv-x="1159" d="M156 383v633h163v-617q0 -137 65 -206.5t181 -69.5q102 0 171 55t91 127v711h164v-1016h-157v137q-20 -31 -51 -59.5t-71 -51t-87 -36t-101 -13.5q-178 0 -273 106.5t-95 299.5zM489 1206v6l177 305h182v-6l-221 -305h-138z" />
<glyph unicode="&#xfb;" horiz-adv-x="1159" d="M156 383v633h163v-617q0 -137 65 -206.5t181 -69.5q102 0 171 55t91 127v711h164v-1016h-157v137q-20 -31 -51 -59.5t-71 -51t-87 -36t-101 -13.5q-178 0 -273 106.5t-95 299.5zM248 1206v6l256 305h143l254 -305v-6h-150l-176 182l-176 -182h-151z" />
<glyph unicode="&#xfc;" horiz-adv-x="1159" d="M156 383v633h163v-617q0 -137 65 -206.5t181 -69.5q102 0 171 55t91 127v711h164v-1016h-157v137q-20 -31 -51 -59.5t-71 -51t-87 -36t-101 -13.5q-178 0 -273 106.5t-95 299.5zM258 1259v205h205v-205h-205zM686 1259v205h205v-205h-205z" />
<glyph unicode="&#xfd;" horiz-adv-x="1028" d="M55 1016h176l234 -582q23 -57 40 -108.5t17 -73.5h6q8 41 20.5 83t35.5 99l217 582h178l-561 -1401h-178l209 487zM434 1206v6l177 305h182v-6l-221 -305h-138z" />
<glyph unicode="&#xfe;" horiz-adv-x="1196" d="M168 -385v1839h164v-575q55 74 138 116.5t179 42.5q100 0 182 -38.5t140.5 -108.5t89.5 -168t31 -215t-31 -215t-89.5 -168t-140 -109t-182.5 -39q-96 0 -179 43t-138 115v-520h-164zM332 305q35 -82 110.5 -132t171.5 -50q145 0 226.5 102.5t81.5 282.5t-81 282.5 t-227 102.5q-96 0 -171.5 -51t-110.5 -133v-404z" />
<glyph unicode="&#xff;" horiz-adv-x="1028" d="M55 1016h176l234 -582q23 -57 40 -108.5t17 -73.5h6q8 41 20.5 83t35.5 99l217 582h178l-561 -1401h-178l209 487zM201 1259v205h205v-205h-205zM629 1259v205h205v-205h-205z" />
<glyph unicode="&#x152;" horiz-adv-x="1873" d="M115 696q0 162 46 295t129 227.5t198.5 145.5t254.5 51q96 0 191 -22h821v-146h-653v-471h567v-145h-567v-486h653v-145h-821q-95 -23 -191 -23q-139 0 -254.5 51.5t-198.5 145.5t-129 227.5t-46 294.5zM291 696q0 -133 32.5 -238.5t92 -178t143.5 -111.5t186 -39 q96 0 187 29v1077q-90 29 -187 29q-102 0 -186 -39t-143.5 -112t-92 -178.5t-32.5 -238.5z" />
<glyph unicode="&#x153;" horiz-adv-x="1878" d="M102 508q0 117 34 215t96.5 168t151.5 108.5t198 38.5q133 0 231 -60t156 -169q53 111 148 170t224 59q102 0 184.5 -37.5t139.5 -104.5t88 -159t31 -200q0 -43 -6 -80h-725q10 -160 90 -247t215 -87q94 0 167.5 39t119.5 110l110 -92q-57 -86 -156 -144.5t-251 -58.5 q-135 0 -231.5 58.5t-149.5 169.5q-57 -106 -154.5 -167t-230.5 -61q-109 0 -198 39t-151.5 109t-96.5 168t-34 215zM272 508q0 -182 84.5 -283.5t225.5 -101.5t225 101.5t84 283.5t-84 283.5t-225 101.5t-225.5 -101.5t-84.5 -283.5zM1055 596h557q-8 137 -81 217t-190 80 t-192.5 -77t-93.5 -220z" />
<glyph unicode="&#x178;" horiz-adv-x="1167" d="M23 1386v7h198l363 -629l362 629h199v-7l-477 -765v-621h-170v625zM268 1606v205h205v-205h-205zM696 1606v205h205v-205h-205z" />
<glyph unicode="&#x2c6;" horiz-adv-x="1296" d="M322 1186v6l256 305h143l254 -305v-6h-150l-176 182l-176 -182h-151z" />
<glyph unicode="&#x2dc;" horiz-adv-x="1290" d="M274 1272q55 188 201 188q47 0 81 -16.5t61.5 -34.5t52 -34.5t53.5 -16.5q35 0 56.5 28.5t35.5 69.5l113 -51q-55 -188 -201 -188q-47 0 -81 16t-61.5 34.5t-52 35t-53.5 16.5q-35 0 -56.5 -28.5t-35.5 -69.5z" />
<glyph unicode="&#x2000;" horiz-adv-x="932" />
<glyph unicode="&#x2001;" horiz-adv-x="1864" />
<glyph unicode="&#x2002;" horiz-adv-x="932" />
<glyph unicode="&#x2003;" horiz-adv-x="1864" />
<glyph unicode="&#x2004;" horiz-adv-x="621" />
<glyph unicode="&#x2005;" horiz-adv-x="466" />
<glyph unicode="&#x2006;" horiz-adv-x="310" />
<glyph unicode="&#x2007;" horiz-adv-x="310" />
<glyph unicode="&#x2008;" horiz-adv-x="233" />
<glyph unicode="&#x2009;" horiz-adv-x="372" />
<glyph unicode="&#x200a;" horiz-adv-x="103" />
<glyph unicode="&#x2010;" horiz-adv-x="821" d="M147 545v147h527v-147h-527z" />
<glyph unicode="&#x2011;" horiz-adv-x="821" d="M147 545v147h527v-147h-527z" />
<glyph unicode="&#x2012;" horiz-adv-x="821" d="M147 545v147h527v-147h-527z" />
<glyph unicode="&#x2013;" horiz-adv-x="1134" d="M147 545v147h840v-147h-840z" />
<glyph unicode="&#x2014;" horiz-adv-x="1773" d="M147 547v147h1479v-147h-1479z" />
<glyph unicode="&#x2018;" horiz-adv-x="509" d="M129 838v206l107 351h120l-100 -326h119v-231h-246z" />
<glyph unicode="&#x2019;" horiz-adv-x="499" d="M137 1161v232h246v-207l-107 -350h-120l100 325h-119z" />
<glyph unicode="&#x201a;" horiz-adv-x="540" d="M147 0v231h246v-206l-106 -351h-121l100 326h-119z" />
<glyph unicode="&#x201c;" horiz-adv-x="929" d="M133 836v206l107 351h120l-100 -326h119v-231h-246zM545 836v206l106 351h121l-100 -326h119v-231h-246z" />
<glyph unicode="&#x201d;" horiz-adv-x="911" d="M137 1161v232h246v-207l-107 -350h-120l100 325h-119zM549 1161v232h246v-207l-107 -350h-121l101 325h-119z" />
<glyph unicode="&#x201e;" horiz-adv-x="952" d="M147 0v231h246v-206l-106 -351h-121l100 326h-119zM559 0v231h246v-206l-107 -351h-120l100 326h-119z" />
<glyph unicode="&#x2022;" horiz-adv-x="819" d="M170 616q0 104 64.5 174t175.5 70t175 -69.5t64 -174.5q0 -104 -64 -173.5t-175 -69.5t-175.5 69.5t-64.5 173.5z" />
<glyph unicode="&#x2026;" horiz-adv-x="1435" d="M145 0v244h244v-244h-244zM596 0v244h244v-244h-244zM1046 0v244h244v-244h-244z" />
<glyph unicode="&#x202f;" horiz-adv-x="372" />
<glyph unicode="&#x2039;" horiz-adv-x="661" d="M88 594v51l303 363h164v-7l-293 -380l293 -383v-7h-164z" />
<glyph unicode="&#x203a;" horiz-adv-x="661" d="M106 229v7l293 380l-293 383v7h164l303 -363v-51l-303 -363h-164z" />
<glyph unicode="&#x205f;" horiz-adv-x="466" />
<glyph unicode="&#x20ac;" d="M66 463v125h116q-2 20 -2 40.5v43.5v42t2 40h-116v125h131q43 240 176 363.5t325 123.5q229 0 383 -201l-106 -102q-106 154 -277 154q-123 0 -210 -83t-119 -255h475v-125h-492q-2 -20 -2 -40v-42v-43.5t2 -40.5h492v-125h-475q33 -172 119.5 -254t209.5 -82 q172 0 277 154l106 -105q-152 -199 -383 -199q-193 0 -325.5 123t-175.5 363h-131z" />
<glyph unicode="&#x2122;" horiz-adv-x="1423" d="M88 1288v105h438v-105h-161v-489h-115v489h-162zM653 799v594h156l92 -260q23 -59 39 -112.5t16 -76.5h7q0 23 15 76t38 115l90 258h154v-594h-115v147q0 51 1 100.5t2 90.5t2 70.5t3 39.5h-6q-2 -10 -10.5 -38.5t-20.5 -67.5t-27.5 -85t-31.5 -95l-56 -162h-86l-59 170 q-16 49 -31.5 95t-28 85t-20.5 66.5t-10 37.5h-6q4 -23 6 -109.5t2 -189.5v-155h-115z" />
<glyph unicode="&#x25fc;" horiz-adv-x="1013" d="M0 0v1014h1014v-1014h-1014z" />
<glyph unicode="&#xfb01;" horiz-adv-x="1181" d="M63 877v139h175v149q0 133 74.5 217t226.5 84q20 0 43.5 -1t42.5 -3v-135h-50q-174 0 -174 -164v-147h224v-139h-224v-877h-163v877h-175zM829 1249v205h205v-205h-205zM850 0v1016h164v-1016h-164z" />
<glyph unicode="&#xfb02;" horiz-adv-x="1181" d="M63 877v139h175v149q0 133 74.5 217t226.5 84q20 0 43.5 -1t42.5 -3v-135h-50q-174 0 -174 -164v-147h224v-139h-224v-877h-163v877h-175zM850 0v1454h164v-1454h-164z" />
</font>
</defs>
</svg>
