<?xml version="1.0" standalone="no"?>
<!DOCTYPE svg PUBLIC "-//W3C//DTD SVG 1.1//EN" "http://www.w3.org/Graphics/SVG/1.1/DTD/svg11.dtd" >
<svg xmlns="http://www.w3.org/2000/svg" xmlns:xlink="http://www.w3.org/1999/xlink" version="1.1">
<metadata></metadata>
<defs>
<font id="hyundai_sans_head_officeRg" horiz-adv-x="1228" >
<font-face units-per-em="2048" ascent="1536" descent="-512" />
<missing-glyph horiz-adv-x="481" />
<glyph horiz-adv-x="0" />
<glyph unicode="&#xd;" horiz-adv-x="481" />
<glyph unicode=" "  horiz-adv-x="481" />
<glyph unicode="&#x09;" horiz-adv-x="481" />
<glyph unicode="&#xa0;" horiz-adv-x="481" />
<glyph unicode="!" horiz-adv-x="509" d="M133 0v244h244v-244h-244zM158 1393h196l-41 -955h-116z" />
<glyph unicode="&#x22;" horiz-adv-x="768" d="M111 1393h198l-39 -525h-120zM459 1393h198l-39 -525h-120z" />
<glyph unicode="#" horiz-adv-x="1312" d="M68 348v148h200l94 405h-180v148h215l82 344h160l-82 -344h350l80 344h160l-80 -344h180v-148h-215l-96 -405h197v-148h-232l-80 -348h-159l81 348h-350l-82 -348h-159l81 348h-165zM428 496h350l94 405h-350z" />
<glyph unicode="$" d="M55 299l135 121q27 -45 62 -88t81 -79t102.5 -61.5t123.5 -33.5v491l-10 2q-174 29 -280.5 124t-106.5 249q0 72 26.5 137.5t77.5 117.5t125 87t168 47v195h184v-199q123 -18 217.5 -77.5t151.5 -145.5l-131 -123q-47 66 -108.5 106.5t-129.5 57.5v-416 q193 -35 299.5 -133t106.5 -264q0 -82 -28.5 -154t-81 -128t-127 -95t-169.5 -53v-211h-184v204q-98 8 -178 40t-141.5 76t-106.5 98.5t-78 107.5zM356 1036q0 -80 54.5 -129t148.5 -65v391q-96 -18 -149.5 -73.5t-53.5 -123.5zM743 166q104 25 157.5 90.5t53.5 149.5 q0 82 -54 135t-157 77v-452z" />
<glyph unicode="%" horiz-adv-x="1626" d="M59 1071q0 74 27 136.5t73 108.5t109.5 71.5t137.5 25.5t137 -25.5t109 -71.5t72 -108.5t26 -136.5t-26 -137.5t-72 -109.5t-109 -71.5t-137 -25.5t-137.5 25.5t-109.5 71.5t-73 109.5t-27 137.5zM207 1071q0 -86 54.5 -144.5t144.5 -58.5q88 0 142 58.5t54 144.5 q0 84 -54 142.5t-142 58.5q-90 0 -144.5 -58.5t-54.5 -142.5zM373 0l723 1393h155l-721 -1393h-157zM877 322q0 74 26.5 136t72.5 108t109.5 72t137.5 26t137 -26t109.5 -72t72 -108.5t25.5 -135.5q0 -74 -25.5 -137.5t-72 -109.5t-109.5 -72t-137 -26t-137.5 26t-109.5 72 t-72.5 109.5t-26.5 137.5zM1024 322q0 -86 54.5 -144.5t144.5 -58.5q88 0 142 58.5t54 144.5q0 84 -54 142t-142 58q-90 0 -144.5 -58t-54.5 -142z" />
<glyph unicode="&#x26;" horiz-adv-x="1398" d="M57 387q0 158 96.5 257t258.5 159q-45 57 -76 120.5t-31 141.5q0 70 27.5 133.5t78 112.5t120 77.5t155.5 28.5q82 0 149.5 -26.5t115.5 -71.5t75 -106.5t27 -131.5q0 -139 -92.5 -222t-241.5 -128l-10 -4l254 -276l245 307l133 -109l-262 -325l293 -318v-6h-244 l-165 184q-94 -98 -209 -153.5t-248 -55.5q-102 0 -185 31t-141.5 86t-90.5 131t-32 164zM240 391q0 -53 20.5 -99t56 -79t86 -51.5t109.5 -18.5q100 0 183 44t155 122l-326 365q-61 -20 -113.5 -45t-90 -58.5t-59 -77.5t-21.5 -102zM487 1065q0 -57 28 -105.5t75 -101.5 l45 14q121 35 178 83.5t57 125.5q0 72 -51 122t-133 50q-94 0 -146.5 -56t-52.5 -132z" />
<glyph unicode="'" horiz-adv-x="419" d="M111 1393h198l-39 -525h-120z" />
<glyph unicode="(" horiz-adv-x="649" d="M84 535q0 184 42 330.5t106.5 257t143.5 189.5t152 132l90 -109q-74 -61 -138 -137t-112.5 -172t-76 -218t-27.5 -273q0 -152 27.5 -274t76 -218t113 -172t137.5 -137l-90 -109q-74 51 -152.5 131t-143 190.5t-106.5 257t-42 331.5z" />
<glyph unicode=")" horiz-adv-x="649" d="M31 -266q74 61 138 137t112.5 172t76 218t27.5 274t-27.5 273.5t-76 217.5t-113 172t-137.5 137l90 109q74 -53 152.5 -132t143 -189.5t106.5 -257t42 -330.5t-42 -331t-106.5 -257.5t-143 -190.5t-152.5 -131z" />
<glyph unicode="*" horiz-adv-x="874" d="M70 1065l41 141l262 -94l-13 281h152l-10 -281l262 94l41 -141l-266 -74l168 -221l-115 -82l-156 236l-155 -236l-113 82l166 221z" />
<glyph unicode="+" d="M137 539v161h395v396h162v-396h396v-161h-396v-396h-162v396h-395z" />
<glyph unicode="," horiz-adv-x="493" d="M125 0v244h244v-215l-111 -340h-123l101 311h-111z" />
<glyph unicode="-" horiz-adv-x="833" d="M125 545v151h584v-151h-584z" />
<glyph unicode="." horiz-adv-x="493" d="M125 0v244h244v-244h-244z" />
<glyph unicode="/" horiz-adv-x="876" d="M51 0l600 1393h174l-600 -1393h-174z" />
<glyph unicode="0" horiz-adv-x="1323" d="M96 696q0 160 37 293t108.5 228.5t177 147.5t243.5 52q137 0 242.5 -52t177 -147.5t108.5 -228.5t37 -293t-37 -293t-108.5 -228t-177 -147.5t-242.5 -52.5t-243 52.5t-177.5 147.5t-108.5 228.5t-37 292.5zM289 696q0 -121 21.5 -220t67.5 -172t116 -112.5t168 -39.5 t167.5 39.5t115.5 112.5t67.5 172t21.5 220q0 119 -21.5 219.5t-67.5 173t-115.5 112.5t-167.5 40t-168 -40t-116 -112.5t-67.5 -173t-21.5 -219.5z" />
<glyph unicode="1" horiz-adv-x="729" d="M6 1161l408 232h143v-1393h-184v1182l-297 -168z" />
<glyph unicode="2" horiz-adv-x="1107" d="M72 0v143q43 88 114.5 162t153.5 138.5t165 126t150.5 124t109.5 132t42 151.5q0 115 -69.5 189.5t-215.5 74.5q-217 0 -289 -219l-147 78q18 53 52 109.5t87.5 102.5t128 75.5t174.5 29.5q111 0 198 -32.5t148.5 -90t93 -137.5t31.5 -174q0 -106 -42 -192t-106.5 -158 t-144 -132.5t-155.5 -115.5t-138.5 -107.5t-93.5 -109.5h703v-168h-950z" />
<glyph unicode="3" horiz-adv-x="1153" d="M41 209l115 129q29 -35 64.5 -68.5t80.5 -59.5t101.5 -42t123.5 -16q76 0 139.5 17t109.5 50t72.5 81t26.5 110q0 109 -81.5 174t-260.5 65h-126v168h126q68 0 118 17.5t84 47t50.5 68.5t16.5 80q0 53 -22.5 93t-59.5 65.5t-85 39t-99 13.5q-106 0 -185.5 -42 t-122.5 -112l-116 117q63 88 170.5 150.5t253.5 62.5q104 0 188 -25.5t144.5 -73.5t93 -119t32.5 -159q0 -90 -50 -166.5t-136 -121.5q123 -41 191.5 -134.5t68.5 -218.5q0 -96 -41 -174t-113.5 -133t-172 -86t-214.5 -31q-92 0 -166.5 22.5t-135 56.5t-105.5 75t-78 80z " />
<glyph unicode="4" horiz-adv-x="1245" d="M33 373v141l690 879h238v-850h237v-170h-237v-373h-185v373h-743zM270 543h506v649z" />
<glyph unicode="5" horiz-adv-x="1144" d="M43 209l115 129q29 -35 64.5 -68.5t79.5 -59.5t100.5 -42t123.5 -16q74 0 138.5 21.5t112.5 62t75 100t27 133.5q0 70 -24 126t-65.5 94t-100 58.5t-126.5 20.5q-98 0 -167.5 -27.5t-129.5 -74.5l-112 39l2 10l67 678h766v-168h-602l-39 -328q47 20 103.5 33.5 t121.5 13.5q102 0 192.5 -30.5t158 -90t106.5 -148.5t39 -206q0 -115 -41 -206t-112.5 -154.5t-172 -98.5t-217.5 -35q-92 0 -165.5 22.5t-134 56.5t-105.5 75t-78 80z" />
<glyph unicode="6" horiz-adv-x="1261" d="M94 662q0 178 44 318t124 237.5t193.5 148.5t255.5 51q160 0 273.5 -70.5t178.5 -168.5l-131 -111q-49 78 -132 126t-189 48q-182 0 -297 -129t-129 -360q63 88 163.5 146t231.5 58q100 0 189 -35.5t157 -100t106.5 -155t38.5 -198.5q0 -106 -40.5 -196.5t-111.5 -156 t-166.5 -102.5t-201.5 -37q-135 0 -239.5 50.5t-175 140.5t-106.5 216t-36 280zM326 465q0 -63 23.5 -120.5t66.5 -100.5t103 -67.5t134 -24.5t134.5 24.5t103.5 67.5t66.5 100t23.5 121q0 63 -23.5 120.5t-66.5 100.5t-103.5 68.5t-134.5 25.5t-134 -25.5t-103 -68.5 t-66.5 -100.5t-23.5 -120.5z" />
<glyph unicode="7" horiz-adv-x="1005" d="M31 1225v168h948v-142l-594 -1251h-207v6l592 1219h-739z" />
<glyph unicode="8" horiz-adv-x="1265" d="M84 397q0 63 19.5 122t56.5 106t87 81.5t111 53.5q-96 45 -141 119.5t-45 173.5q0 74 29.5 140.5t88 116.5t144.5 78.5t199 28.5t199 -28.5t144 -78.5t88 -117t30 -140q0 -98 -45 -173t-142 -120q61 -18 111.5 -53t87.5 -82t56.5 -105.5t19.5 -122.5q0 -92 -36 -168.5 t-105.5 -133t-172 -88.5t-235.5 -32t-235.5 32t-172 88.5t-105.5 133t-36 168.5zM274 410q0 -111 91.5 -187t267.5 -76t267 76t91 187q0 53 -23.5 100t-68.5 82t-111.5 55.5t-154.5 20.5t-154.5 -20.5t-111.5 -55.5t-69 -82t-24 -100zM362 1044q0 -96 77 -150t194 -54 t193.5 54t76.5 150q0 47 -20.5 84t-57.5 64t-86 40t-106 13t-106.5 -13t-86.5 -40t-57.5 -63.5t-20.5 -84.5z" />
<glyph unicode="9" horiz-adv-x="1261" d="M90 926q0 106 41 196t111.5 155.5t164.5 102.5t203 37q135 0 239.5 -50t175.5 -140t106.5 -216t35.5 -280q0 -178 -44 -318.5t-123.5 -237.5t-193.5 -148.5t-255 -51.5q-160 0 -273.5 71t-179.5 169l131 111q49 -78 132 -126t190 -48q182 0 297 129t129 360 q-63 -88 -163.5 -146.5t-231.5 -58.5q-100 0 -189.5 36t-157 100.5t-106.5 154.5t-39 199zM281 928q0 -63 23.5 -120.5t66.5 -100.5t103.5 -69t133.5 -26q74 0 134.5 26t103.5 69t66.5 100t23.5 121q0 63 -23.5 120.5t-66.5 100.5t-103.5 67.5t-134.5 24.5t-134 -24.5 t-103 -67.5t-66.5 -100.5t-23.5 -120.5z" />
<glyph unicode=":" horiz-adv-x="489" d="M125 0v238h240v-238h-240zM125 788v238h240v-238h-240z" />
<glyph unicode=";" horiz-adv-x="489" d="M125 788v238h240v-238h-240zM127 0v236h238v-207l-109 -330h-119l99 301h-109z" />
<glyph unicode="&#x3c;" d="M113 543v155l952 406v-168l-758 -315l758 -316v-168z" />
<glyph unicode="=" d="M137 293v162h953v-162h-953zM137 782v164h953v-164h-953z" />
<glyph unicode="&#x3e;" d="M164 137v168l758 316l-758 315v168l952 -406v-155z" />
<glyph unicode="?" horiz-adv-x="929" d="M57 1116q14 57 47 112.5t82.5 96.5t117 66.5t155.5 25.5q86 0 157.5 -27.5t125 -75.5t83 -116t29.5 -147q0 -59 -14.5 -107.5t-38 -87.5t-53 -70.5t-60.5 -56.5l-96 -78q-31 -27 -50.5 -47t-30.5 -41.5t-16.5 -45t-5.5 -56.5v-23h-163q-4 16 -8.5 36t-4.5 36 q0 80 35 138.5t115 125.5l96 78q53 45 80 90t27 98q0 90 -60.5 145.5t-154.5 55.5q-100 0 -161 -50t-79 -136zM287 0v244h243v-244h-243z" />
<glyph unicode="@" horiz-adv-x="1972" d="M82 543q0 205 69.5 374.5t192.5 291.5t292 189.5t365 67.5q190 0 352.5 -61.5t279 -171t183 -259t66.5 -323.5q0 -145 -37 -252.5t-95 -179.5t-130 -106.5t-139 -34.5q-96 0 -155.5 41t-82.5 112q-53 -68 -132 -110.5t-183 -42.5q-90 0 -168 33.5t-134.5 95t-89 145.5 t-32.5 185q0 100 32.5 185t89 146.5t133.5 95t167 33.5q92 0 165.5 -35.5t120.5 -95.5v117h174v-618q0 -121 101 -121q37 0 78 22.5t73.5 71.5t54 125t21.5 182q0 143 -52 266t-147.5 212t-226.5 139.5t-287 50.5q-160 0 -298 -56.5t-239.5 -158t-158.5 -243.5t-57 -312 t57 -308.5t158.5 -235.5t240 -149.5t297.5 -52.5q104 0 190.5 23.5t151.5 58.5l66 -139q-90 -47 -193.5 -71.5t-214.5 -24.5q-193 0 -360.5 62.5t-291.5 179t-195.5 283.5t-71.5 374zM686 539q0 -66 20.5 -120t56.5 -93t85 -60.5t106 -21.5q90 0 159 43t99 112v277 q-31 70 -99.5 112.5t-158.5 42.5q-57 0 -106 -21.5t-85 -59t-56.5 -92t-20.5 -119.5z" />
<glyph unicode="A" horiz-adv-x="1366" d="M14 0l564 1393h213l561 -1393h-199l-135 336h-672l-133 -336h-199zM414 504h538l-268 676z" />
<glyph unicode="B" horiz-adv-x="1347" d="M176 0v1393h537q217 0 332.5 -97.5t115.5 -271.5q0 -92 -44 -165t-126 -120q59 -16 110.5 -44.5t88.5 -71.5t58.5 -100.5t21.5 -131.5q0 -180 -123 -285.5t-365 -105.5h-606zM365 164h409q156 0 228.5 61.5t72.5 171.5q0 111 -72.5 173.5t-228.5 62.5h-409v-469zM365 795 h325q145 0 211 57t66 160q0 102 -65.5 159.5t-211.5 57.5h-325v-434z" />
<glyph unicode="C" horiz-adv-x="1462" d="M86 696q0 152 52 284t145.5 229.5t221.5 152.5t279 55q213 0 372 -98t247 -262l-148 -101q-66 129 -183.5 206t-285.5 77q-115 0 -208 -42t-159.5 -114.5t-102 -172t-35.5 -214.5t35.5 -214t102 -171.5t160 -114.5t207.5 -42q168 0 286 76.5t183 205.5l148 -100 q-88 -164 -247 -262.5t-372 -98.5q-152 0 -279.5 55.5t-221 153t-145.5 229.5t-52 283z" />
<glyph unicode="D" horiz-adv-x="1478" d="M176 0v1393h533q145 0 269 -46.5t215 -134.5t143.5 -218t52.5 -298t-52.5 -298t-143.5 -218t-215 -134t-269 -46h-533zM365 168h331q113 0 205 34t156.5 100.5t100.5 165.5t36 228t-36 228.5t-100.5 166t-156.5 100.5t-205 34h-331v-1057z" />
<glyph unicode="E" horiz-adv-x="1218" d="M176 0v1393h944v-168h-755v-439h661v-168h-661v-450h755v-168h-944z" />
<glyph unicode="F" horiz-adv-x="1157" d="M176 0v1393h922v-168h-733v-445h659v-168h-659v-612h-189z" />
<glyph unicode="G" horiz-adv-x="1501" d="M86 696q0 152 52 284t145.5 229.5t222.5 152.5t280 55q209 0 361.5 -91t243.5 -245l-142 -104q-70 121 -184.5 191.5t-276.5 70.5q-115 0 -208 -42t-159.5 -114.5t-103 -172t-36.5 -214.5t36.5 -214t103 -171.5t161 -114.5t211.5 -42q121 0 230.5 34.5t176.5 92.5v311 h-356v168h545v-576q-111 -90 -267.5 -149.5t-330.5 -59.5q-154 0 -283 55.5t-223.5 153t-146.5 229.5t-52 283z" />
<glyph unicode="H" horiz-adv-x="1529" d="M176 0v1393h189v-607h800v607h189v-1393h-189v618h-800v-618h-189z" />
<glyph unicode="I" horiz-adv-x="540" d="M176 0v1393h189v-1393h-189z" />
<glyph unicode="J" horiz-adv-x="1118" d="M14 238l142 108q41 -78 111.5 -135t181.5 -57q158 0 238.5 96t80.5 289v854h188v-861q0 -129 -33.5 -231t-98 -175t-158.5 -112t-213 -39q-82 0 -149.5 22.5t-123 59.5t-97.5 84t-69 97z" />
<glyph unicode="K" horiz-adv-x="1298" d="M176 0v1393h189v-723l669 723h234v-9l-543 -581l569 -797v-6h-227l-473 664l-229 -248v-416h-189z" />
<glyph unicode="L" horiz-adv-x="1118" d="M176 0v1393h189v-1225h716v-168h-905z" />
<glyph unicode="M" horiz-adv-x="1843" d="M176 0v1393h252l494 -1151l493 1151h252v-1393h-188v1102l-471 -1102h-172l-471 1102v-1102h-189z" />
<glyph unicode="N" horiz-adv-x="1558" d="M176 0v1393h166l852 -1078v1078h188v-1393h-165l-852 1077v-1077h-189z" />
<glyph unicode="O" horiz-adv-x="1568" d="M86 696q0 152 52 284t145.5 229.5t221.5 152.5t279 55q152 0 280 -55t221 -152.5t145.5 -229.5t52.5 -284t-52.5 -283.5t-145.5 -229t-221 -153t-280 -55.5t-279.5 55.5t-221 153t-145.5 229.5t-52 283zM281 696q0 -115 35.5 -214t101 -171.5t158.5 -114.5t208 -42 t208 42t159 114.5t101.5 172t35.5 213.5q0 115 -35.5 214.5t-101.5 172t-159 114.5t-208 42t-208 -42t-158.5 -114.5t-101 -172t-35.5 -214.5z" />
<glyph unicode="P" horiz-adv-x="1243" d="M176 0v1393h533q223 0 349 -107.5t126 -312.5t-126 -310.5t-349 -105.5h-344v-557h-189zM365 725h321q303 0 303 248q0 252 -303 252h-321v-500z" />
<glyph unicode="Q" horiz-adv-x="1568" d="M86 696q0 152 52 284t145.5 229.5t221.5 152.5t279 55q152 0 280 -55t221 -152.5t145.5 -229.5t52.5 -284q0 -180 -72 -329.5t-199 -247.5l263 -355l-154 -102l-264 367q-125 -53 -273 -54q-152 0 -279.5 55.5t-221 153t-145.5 229.5t-52 283zM281 696q0 -115 35.5 -214 t101 -171.5t159 -114.5t207.5 -42q115 0 208 42t159 114.5t101.5 172t35.5 213.5q0 115 -35.5 214.5t-101.5 172t-159 114.5t-208 42t-208 -42t-158.5 -114.5t-101 -172t-35.5 -214.5z" />
<glyph unicode="R" horiz-adv-x="1359" d="M176 0v1393h578q102 0 186 -28t144.5 -79t93 -125t32.5 -168q0 -160 -89 -259t-242 -128l481 -600v-6h-230l-462 594h-303v-594h-189zM365 762h370q141 0 211 59.5t70 171.5q0 111 -69.5 171.5t-211.5 60.5h-370v-463z" />
<glyph unicode="S" horiz-adv-x="1208" d="M37 299l135 121q29 -51 70 -99.5t95 -85t122.5 -59t152.5 -22.5q80 0 140.5 20.5t101.5 54t61.5 79.5t20.5 98q0 94 -71.5 149t-200.5 76l-134 20q-174 29 -280.5 124t-106.5 249q0 80 32 150.5t93.5 125t150.5 86t204 31.5q160 0 280.5 -63.5t190.5 -167.5l-131 -123 q-66 92 -155 134t-187 42q-133 0 -208 -60.5t-75 -142.5q0 -84 59.5 -133t161.5 -65l135 -21q205 -33 320.5 -132t115.5 -271q0 -94 -36.5 -174t-104 -138.5t-164 -92.5t-215.5 -34q-115 0 -206 29t-160.5 75t-120.5 103.5t-86 116.5z" />
<glyph unicode="T" horiz-adv-x="1142" d="M37 1225v168h1069v-168h-440v-1225h-189v1225h-440z" />
<glyph unicode="U" horiz-adv-x="1458" d="M160 586v807h188v-791q0 -209 94.5 -328.5t286.5 -119.5q190 0 285.5 120.5t95.5 327.5v791h188v-807q0 -135 -37.5 -247t-110.5 -192.5t-178.5 -126t-242.5 -45.5t-242.5 45.5t-178 126t-110.5 192.5t-38 247z" />
<glyph unicode="V" horiz-adv-x="1353" d="M16 1393h199l463 -1174l461 1174h198l-553 -1393h-213z" />
<glyph unicode="W" horiz-adv-x="2025" d="M27 1393h194l322 -1133l368 1133h203l369 -1133l321 1133h195l-410 -1393h-205l-372 1126l-371 -1126h-203z" />
<glyph unicode="X" horiz-adv-x="1298" d="M-4 0v6l528 725l-473 655v7h225l373 -523l373 523h225v-7l-473 -655l529 -725v-6h-226l-428 594l-428 -594h-225z" />
<glyph unicode="Y" horiz-adv-x="1286" d="M18 1386v7h222l403 -609l404 609h219v-7l-529 -790v-596h-188v596z" />
<glyph unicode="Z" horiz-adv-x="1159" d="M61 0v147l764 1078h-729v168h977v-148l-768 -1077h785v-168h-1029z" />
<glyph unicode="[" horiz-adv-x="608" d="M162 -340v1733h389v-146h-223v-1442h223v-145h-389z" />
<glyph unicode="\" horiz-adv-x="876" d="M51 1393h174l600 -1393h-174z" />
<glyph unicode="]" horiz-adv-x="608" d="M57 -195h224v1442h-224v146h389v-1733h-389v145z" />
<glyph unicode="^" d="M156 762v6l389 625h139l389 -625v-6h-174l-285 465l-284 -465h-174z" />
<glyph unicode="_" horiz-adv-x="1024" d="M0 -106h1024v-148h-1024v148z" />
<glyph unicode="`" d="M526 1495v6h191l147 -307v-6h-159z" />
<glyph unicode="a" horiz-adv-x="1255" d="M78 514q0 119 38 217t104.5 169t158.5 110t201 39q111 0 200.5 -45.5t149.5 -122.5v145h184v-1026h-184v145q-59 -78 -149.5 -123t-200.5 -45q-109 0 -201 39t-158.5 110t-104.5 169t-38 219zM266 514q0 -86 26.5 -154.5t74 -115.5t110.5 -73t135 -26q109 0 193 51.5 t125 137.5v356q-41 86 -125 138.5t-193 52.5q-72 0 -135 -26t-110.5 -73t-74 -114.5t-26.5 -153.5z" />
<glyph unicode="b" horiz-adv-x="1255" d="M141 0v1454h185v-573q59 78 149 123t201 45q109 0 201 -39t158.5 -110t104.5 -169t38 -217q0 -121 -38 -219t-104.5 -169t-159 -110t-200.5 -39q-111 0 -201 45.5t-149 122.5v-145h-185zM326 338q41 -86 124.5 -139.5t192.5 -53.5q72 0 135.5 25t110.5 73t73.5 116.5 t26.5 154.5t-26.5 153.5t-73.5 115.5t-110.5 73t-135.5 25q-109 0 -192.5 -53.5t-124.5 -141.5v-348z" />
<glyph unicode="c" horiz-adv-x="1114" d="M78 514q0 111 37 208t105.5 170t164.5 115t217 42q154 0 268.5 -69t184.5 -192l-137 -96q-47 86 -126 137.5t-184 51.5q-74 0 -136 -26t-108.5 -74t-72 -115.5t-25.5 -151.5q0 -86 25.5 -153.5t72 -115.5t109 -74t135.5 -26q104 0 183 51.5t127 137.5l137 -96 q-70 -123 -184.5 -192t-268.5 -69q-121 0 -217 42t-164.5 115t-105.5 171t-37 209z" />
<glyph unicode="d" horiz-adv-x="1255" d="M78 514q0 119 38 217t104.5 169t158.5 110t201 39q111 0 200.5 -45.5t149.5 -122.5v573h184v-1454h-184v145q-59 -78 -149.5 -123t-200.5 -45q-109 0 -201 39t-158.5 110t-104.5 169t-38 219zM266 514q0 -86 26.5 -154.5t74 -116.5t110.5 -73t135 -25q109 0 193 53.5 t125 139.5v348q-41 88 -125 141.5t-193 53.5q-72 0 -135 -25t-110.5 -73t-74 -115.5t-26.5 -153.5z" />
<glyph unicode="e" horiz-adv-x="1146" d="M80 512q0 119 37 218t104.5 170t160.5 110t204 39t201 -39t154.5 -106.5t100 -160t35.5 -198.5q0 -23 -2 -48.5t-6 -47.5h-803q16 -141 104.5 -224.5t237.5 -83.5q104 0 192.5 50.5t141.5 130.5l113 -117q-78 -104 -193 -167t-262 -63q-117 0 -213 41t-164.5 113 t-105.5 170t-37 213zM268 602h623q-10 133 -95 209t-210 76q-127 0 -211 -75t-107 -210z" />
<glyph unicode="f" horiz-adv-x="665" d="M51 874v152h172v113q0 143 84 235t250 92h37.5t36.5 -2v-153h-31q-98 0 -145 -41t-47 -133v-111h223v-152h-223v-874h-185v874h-172z" />
<glyph unicode="g" horiz-adv-x="1220" d="M80 549q0 111 35 203t97 158.5t150.5 102.5t196.5 36q111 0 194 -44t142 -118v139h184v-891q0 -133 -42 -233.5t-112.5 -167t-162.5 -100t-193 -33.5q-170 0 -285.5 62.5t-181.5 166.5l121 113q55 -84 139 -129t201 -45q68 0 127.5 21.5t105.5 65.5t72.5 110.5 t26.5 156.5v84q-59 -74 -143 -117t-193 -43t-197 36t-150 102.5t-97 158.5t-35 205zM268 549q0 -74 23.5 -135.5t66.5 -105.5t103.5 -68.5t134.5 -24.5q102 0 180 49t119 133v301q-41 84 -119 133.5t-180 49.5q-74 0 -134.5 -25t-103.5 -68t-66.5 -104t-23.5 -135z" />
<glyph unicode="h" horiz-adv-x="1202" d="M141 0v1454h185v-588q20 33 51 66t73 59.5t95 42t119 15.5q201 0 304 -120t103 -331v-598h-184v580q0 147 -71 224t-202 77q-66 0 -115.5 -21.5t-85.5 -53.5t-57.5 -69t-29.5 -67v-670h-185z" />
<glyph unicode="i" horiz-adv-x="466" d="M133 1260v221h199v-221h-199zM141 0v1026h185v-1026h-185z" />
<glyph unicode="j" horiz-adv-x="466" d="M-23 -270q82 63 123 131.5t41 179.5v985h185v-991q0 -170 -65.5 -271.5t-174.5 -166.5zM133 1260v221h199v-221h-199z" />
<glyph unicode="k" horiz-adv-x="1062" d="M141 0v1454h185v-913l479 485h217v-8l-410 -418l467 -594v-6h-221l-366 477l-166 -170v-307h-185z" />
<glyph unicode="l" horiz-adv-x="466" d="M141 0v1454h185v-1454h-185z" />
<glyph unicode="m" horiz-adv-x="1927" d="M141 0v1026h185v-156q41 68 122.5 123.5t210.5 55.5q133 0 221.5 -54.5t133.5 -154.5q51 92 148.5 150.5t232.5 58.5q199 0 300 -120t101 -331v-598h-184v580q0 147 -68.5 224t-200.5 77q-57 0 -103 -17.5t-82 -46.5t-60.5 -66.5t-36.5 -80.5v-52v-20v-598h-184v580 q0 147 -69 224t-200 77q-57 0 -104 -17.5t-83 -46.5t-59.5 -66.5t-35.5 -80.5v-670h-185z" />
<glyph unicode="n" horiz-adv-x="1202" d="M141 0v1026h185v-156q41 68 125 123.5t213 55.5q201 0 304 -120t103 -331v-598h-184v580q0 147 -71 224t-202 77q-57 0 -105 -17.5t-85 -46.5t-61.5 -66.5t-36.5 -80.5v-670h-185z" />
<glyph unicode="o" horiz-adv-x="1212" d="M78 512q0 111 37 209t104.5 171t165.5 115t221 42t221.5 -42t166 -115t104.5 -171t37 -209t-37 -208t-104.5 -171t-166 -116t-221.5 -42t-221 42t-165.5 116t-104.5 171t-37 208zM266 512q0 -84 26.5 -152.5t73 -116.5t107.5 -74t133 -26t133.5 26t107.5 74t72.5 116.5 t26.5 152.5t-26.5 152.5t-72.5 116.5t-107.5 74t-133.5 26t-133 -26t-107.5 -74t-73 -116.5t-26.5 -152.5z" />
<glyph unicode="p" horiz-adv-x="1253" d="M141 -377v1403h185v-145q59 78 148 123t200 45q109 0 201 -39t158.5 -110t104.5 -169t38 -217q0 -121 -38 -219t-104.5 -169t-159 -110t-200.5 -39q-111 0 -200 45.5t-148 120.5v-520h-185zM326 334q41 -86 123.5 -137.5t191.5 -51.5q72 0 135.5 25t110.5 73t73.5 116.5 t26.5 154.5t-26.5 153.5t-73.5 115.5t-110.5 73t-135.5 25q-109 0 -191.5 -51.5t-123.5 -137.5v-358z" />
<glyph unicode="q" horiz-adv-x="1253" d="M78 514q0 119 38 217t104.5 169t158.5 110t201 39q111 0 199.5 -45.5t148.5 -122.5v145h184v-1403h-184v520q-59 -76 -148.5 -121t-199.5 -45q-109 0 -201 39t-158.5 110t-104.5 169t-38 219zM266 514q0 -86 26.5 -154.5t74 -116.5t110.5 -73t135 -25q109 0 192 51.5 t124 137.5v358q-41 86 -124 137.5t-192 51.5q-72 0 -135 -25t-110.5 -73t-74 -115.5t-26.5 -153.5z" />
<glyph unicode="r" horiz-adv-x="702" d="M141 0v1026h185v-176q43 86 123.5 142.5t199.5 56.5h23v-179q-125 -4 -215 -57t-131 -174v-639h-185z" />
<glyph unicode="s" horiz-adv-x="966" d="M39 190l119 125q47 -72 131 -122t186 -50q100 0 169 40t69 120q0 61 -54.5 96t-148.5 50l-90 14q-137 23 -219 92.5t-82 192.5q0 61 24.5 115.5t72.5 95t120 65.5t164 25q119 0 210 -47.5t148 -118.5l-115 -125q-49 59 -110.5 91t-136.5 32q-96 0 -142.5 -39t-46.5 -90 q0 -53 40 -81t112 -38l92 -15q168 -25 259 -102.5t91 -208.5q0 -70 -29.5 -130t-85 -105t-135.5 -71t-180 -26q-147 0 -257 64.5t-175 150.5z" />
<glyph unicode="t" horiz-adv-x="702" d="M35 874v152h182v266h180v-266h252v-152h-252v-520q0 -115 52.5 -159.5t166.5 -44.5h33v-152q-16 -4 -37.5 -6t-44.5 -2q-176 0 -265 89t-89 281v514h-178z" />
<glyph unicode="u" horiz-adv-x="1202" d="M131 428v598h184v-580q0 -147 71 -224t202 -77q57 0 105 17.5t85 46.5t61.5 66.5t37.5 80.5v670h184v-1026h-184v156q-41 -68 -125 -123.5t-213 -55.5q-201 0 -304.5 120t-103.5 331z" />
<glyph unicode="v" horiz-adv-x="1087" d="M25 1026h196l322 -793l323 793h197l-430 -1026h-178z" />
<glyph unicode="w" horiz-adv-x="1681" d="M27 1026h194l248 -776l279 776h186l278 -776l248 776h195l-344 -1026h-178l-291 795l-293 -795h-178z" />
<glyph unicode="x" horiz-adv-x="1042" d="M20 0v6l377 518l-356 494v8h209l270 -381l271 381h210v-8l-356 -494l377 -518v-6h-211l-291 406l-289 -406h-211z" />
<glyph unicode="y" horiz-adv-x="1064" d="M25 1026h196l326 -704l305 704h197l-621 -1403h-197l222 494z" />
<glyph unicode="z" horiz-adv-x="962" d="M55 0v135l590 739h-549v152h787v-135l-592 -739h606v-152h-842z" />
<glyph unicode="{" horiz-adv-x="684" d="M25 455v143h106q47 0 78 30.5t31 78.5v409q0 141 76.5 212t205.5 71q16 0 51 -1t54 -5v-144h-74q-68 0 -109 -31.5t-41 -121.5v-383q0 -158 -133 -187q133 -29 133 -186v-383q0 -90 41 -122t109 -32h74v-143q-18 -4 -53.5 -5t-51.5 -1q-129 0 -205.5 70.5t-76.5 212.5 v409q0 47 -31 78t-78 31h-106z" />
<glyph unicode="|" horiz-adv-x="477" d="M162 -340v1794h153v-1794h-153z" />
<glyph unicode="}" horiz-adv-x="684" d="M57 -197h74q68 0 109 32t41 122v383q0 158 133 186q-133 29 -133 187v383q0 90 -41 121.5t-109 31.5h-74v144q18 4 53.5 5t51.5 1q129 0 205.5 -71t76.5 -212v-409q0 -47 31 -78t78 -31h106v-143h-106q-47 0 -78 -31t-31 -78v-409q0 -141 -76.5 -212t-205.5 -71 q-16 0 -51 1t-54 5v143z" />
<glyph unicode="~" d="M141 500v164q55 39 118 61.5t128 22.5q63 0 123.5 -14.5t118 -33t111 -33t102.5 -14.5q59 0 120.5 22.5t124.5 63.5h7v-161q-53 -41 -116.5 -63.5t-129.5 -22.5q-61 0 -120.5 14t-117 32.5t-112 33t-103.5 14.5q-119 0 -248 -86h-6z" />
<glyph unicode="&#xa1;" horiz-adv-x="481" d="M119 782v244h244v-244h-244zM142 -367l41 955h116l39 -955h-196z" />
<glyph unicode="&#xa2;" d="M133 700q0 100 31 189.5t87 160t137 116.5t181 63v205h179v-205q121 -18 212 -84t150 -170l-137 -96q-37 68 -94.5 114.5t-130.5 63.5v-715q74 16 131 63.5t94 114.5l137 -96q-59 -104 -150.5 -170t-211.5 -84v-211h-179v211q-100 14 -181 61.5t-137 118t-87 160.5 t-31 190zM322 700q0 -141 68.5 -234t178.5 -122v711q-111 -29 -179 -121.5t-68 -233.5z" />
<glyph unicode="&#xa3;" d="M147 586v166h138q-20 53 -33.5 115.5t-13.5 140.5q0 88 30.5 163.5t88 130t139.5 85t182 30.5q143 0 249.5 -73.5t170.5 -204.5l-144 -101q-100 201 -276 201q-104 0 -176 -66.5t-72 -181.5q0 -66 15.5 -123t37.5 -112h426v-164h-370q6 -29 10 -57.5t4 -59.5 q0 -104 -39 -178t-86 -129h645v-168h-872v147q37 39 66.5 75t51 74t32.5 81t11 100q0 29 -5 55.5t-13 53.5h-197z" />
<glyph unicode="&#xa4;" d="M141 256l146 145q-29 45 -45.5 99.5t-16.5 117.5q0 121 62 218l-146 145l111 109l145 -146q92 57 217 57q119 0 215 -57l146 146l110 -109l-145 -145q63 -92 64 -218q0 -125 -64 -219l145 -143l-110 -109l-146 146q-96 -57 -215 -57q-125 0 -217 57l-145 -146zM387 618 q0 -102 63.5 -166.5t161.5 -64.5q100 0 164 64.5t64 166.5t-63.5 167t-164.5 65q-98 0 -161.5 -64.5t-63.5 -167.5z" />
<glyph unicode="&#xa5;" d="M68 1386v7h217l327 -549l332 549h215v-7l-414 -663h271v-162h-307v-151h307v-162h-307v-248h-189v248h-311v162h311v151h-311v162h274z" />
<glyph unicode="&#xa6;" horiz-adv-x="473" d="M160 -340v750h153v-750h-153zM160 707v747h153v-747h-153z" />
<glyph unicode="&#xa7;" horiz-adv-x="1126" d="M84 -39l125 113q23 -43 55.5 -82t76.5 -70t99.5 -49t122.5 -18q129 0 194.5 56t65.5 136q0 72 -61.5 116t-177.5 62l-121 19q-162 23 -261.5 107.5t-99.5 219.5q0 156 144 269q-49 43 -77 102t-28 137q0 68 29 129.5t82 107.5t132 73.5t177 27.5q147 0 260 -57t174 -150 l-118 -112q-59 80 -139.5 117.5t-170.5 37.5q-113 0 -177 -50t-64 -122t48 -113.5t130 -52.5l125 -18q195 -29 304 -117t109 -231q0 -164 -137 -270q102 -90 103 -224q0 -80 -32 -146.5t-90.5 -115.5t-141.5 -75.5t-183 -26.5q-96 0 -171 24.5t-133 62.5t-101 86t-72 97z M287 586q0 -72 55 -115t152 -57l122 -19q37 -6 71 -14t65 -19q53 33 79.5 78t26.5 99q0 76 -66.5 119.5t-195.5 66.5l-121 20q-20 4 -38.5 8.5t-35.5 8.5q-59 -35 -86.5 -81t-27.5 -95z" />
<glyph unicode="&#xa8;" d="M283 1237v213h217v-213h-217zM748 1237v213h217v-213h-217z" />
<glyph unicode="&#xa9;" horiz-adv-x="1728" d="M84 696q0 164 60.5 306.5t165 247t246.5 165t308 60.5t308.5 -60.5t247 -165t165 -247t60.5 -306.5t-60.5 -306t-165 -246.5t-247 -165t-308.5 -60.5t-308 60.5t-246.5 165t-165 246.5t-60.5 306zM236 696q0 -135 48 -250.5t132 -200.5t199.5 -133.5t248.5 -48.5 t248 48.5t200 133.5t133 200.5t48 250.5t-48 251t-133 201t-200 133t-248 48t-248.5 -48t-199.5 -133t-132 -201t-48 -251zM479 696q0 80 28 152t78 125t121.5 85t161.5 32q117 0 202 -51.5t136 -141.5l-110 -82q-35 59 -89.5 97t-132.5 38q-111 0 -174 -71.5t-63 -182.5 t63.5 -181.5t173.5 -70.5q78 0 132.5 38t89.5 98l110 -84q-51 -88 -136 -139.5t-202 -51.5q-90 0 -161.5 32t-121.5 85t-78 123.5t-28 150.5z" />
<glyph unicode="&#xaa;" horiz-adv-x="706" d="M94 1016q0 78 59.5 124t151.5 46q43 0 82 -12.5t68 -28.5v31q0 53 -29 87.5t-96 34.5q-37 0 -72 -18t-51 -55l-94 65q27 49 83 86t142 37q121 0 183.5 -65.5t62.5 -182.5v-303h-125v53q-78 -67 -172 -67t-143.5 48t-49.5 120zM225 1020q0 -31 23.5 -51.5t70.5 -20.5 q78 0 136 51v58q-59 37 -129 37q-53 0 -77 -21.5t-24 -52.5z" />
<glyph unicode="&#xab;" horiz-adv-x="1128" d="M70 588v57l336 371h182v-6l-336 -394l336 -393v-6h-182zM524 588v57l336 371h182v-6l-335 -394l335 -393v-6h-182z" />
<glyph unicode="&#xac;" d="M133 604v164h952v-442h-161v278h-791z" />
<glyph unicode="&#xad;" horiz-adv-x="833" d="M125 545v151h584v-151h-584z" />
<glyph unicode="&#xae;" horiz-adv-x="1003" d="M84 1001q0 88 31.5 164t88 132.5t132.5 88t166 31.5q88 0 164.5 -31.5t133 -88t88.5 -132t32 -164.5q0 -88 -32 -163.5t-88.5 -132t-133 -88t-164.5 -31.5q-90 0 -166 31.5t-132.5 88t-88 132t-31.5 163.5zM193 1001q0 -66 23.5 -123t64.5 -98t97 -64.5t124 -23.5 t124 23.5t97 64.5t64.5 98.5t23.5 122.5q0 66 -23.5 122.5t-64.5 98.5t-97.5 65.5t-123.5 23.5q-68 0 -124 -23.5t-97 -65.5t-64.5 -98.5t-23.5 -122.5zM350 805v395h180q59 0 98.5 -33.5t39.5 -95.5q0 -43 -21.5 -70.5t-56.5 -42.5l112 -147v-6h-118l-97 143h-34v-143h-103 zM455 1034h69q18 0 29.5 10.5t11.5 26.5q0 39 -41 39h-69v-76z" />
<glyph unicode="&#xaf;" d="M236 1272v141h665v-141h-665z" />
<glyph unicode="&#xb0;" horiz-adv-x="770" d="M82 1120q0 63 22.5 117.5t63.5 94.5t96 62.5t121 22.5t121 -22.5t96 -62.5t63.5 -94t22.5 -118q0 -63 -22.5 -117.5t-63.5 -94.5t-96 -62.5t-121 -22.5t-121 22.5t-96 62.5t-63.5 94.5t-22.5 117.5zM225 1120q0 -68 44 -113.5t116 -45.5t116 46t44 113q0 68 -44 114 t-116 46t-116 -46t-44 -114z" />
<glyph unicode="&#xb1;" d="M137 121v162h953v-162h-953zM137 750v163h395v363h162v-363h396v-163h-396v-318h-162v318h-395z" />
<glyph unicode="&#xb4;" d="M393 1188v6l148 307h190v-6l-178 -307h-160z" />
<glyph unicode="&#xb5;" horiz-adv-x="1212" d="M141 -377v1403h185v-577q0 -150 70.5 -227t201.5 -77q57 0 105.5 17.5t85 46.5t61 67.5t37.5 79.5v670h184v-1026h-184v156q-39 -68 -122 -123.5t-210 -55.5q-70 0 -126 18.5t-103 59.5v-432h-185z" />
<glyph unicode="&#xb6;" horiz-adv-x="1153" d="M57 1044q0 170 98.5 258.5t252.5 90.5h239v-1733h-143v1036h-96q-154 0 -252.5 89t-98.5 259zM821 -340v1733h144v-1733h-144z" />
<glyph unicode="&#xb7;" horiz-adv-x="493" d="M125 496v243h244v-243h-244z" />
<glyph unicode="&#xb8;" d="M367 -317l41 112q29 -16 55 -25.5t57 -9.5q53 0 79 23.5t26 64.5q0 57 -61.5 103.5t-166.5 48.5l228 16q66 -29 103.5 -82t37.5 -118q0 -80 -59.5 -131.5t-163.5 -51.5q-57 0 -100.5 14.5t-75.5 35.5z" />
<glyph unicode="&#xba;" horiz-adv-x="749" d="M84 1130q0 55 18.5 106.5t55.5 90.5t91 62.5t126 23.5t126 -23.5t91 -62.5t55.5 -90t18.5 -107q0 -55 -18.5 -106t-55.5 -90t-91 -62.5t-126 -23.5t-126 23.5t-91 62.5t-55.5 90t-18.5 106zM219 1130q0 -74 44 -117.5t112 -43.5t111.5 44t43.5 117q0 74 -44 118t-111 44 q-68 0 -112 -44t-44 -118z" />
<glyph unicode="&#xbb;" horiz-adv-x="1128" d="M86 219v6l336 393l-336 394v6h182l336 -371v-57l-336 -371h-182zM541 219v6l336 393l-336 394v6h182l336 -371v-57l-336 -371h-182z" />
<glyph unicode="&#xbc;" horiz-adv-x="1476" d="M55 1256l254 137h107v-731h-146v567l-161 -86zM270 0l723 1393h156l-721 -1393h-158zM768 178v107l334 446h180v-442h125v-111h-125v-178h-146v178h-368zM921 289h215v289z" />
<glyph unicode="&#xbd;" horiz-adv-x="1552" d="M55 1256l254 137h107v-731h-146v567l-161 -86zM284 0l723 1393h156l-721 -1393h-158zM936 0v109q35 66 98.5 114.5t125 91.5t107.5 87t46 98q0 49 -31.5 79.5t-95.5 30.5q-51 0 -85 -30.5t-50 -85.5l-113 63q10 31 29.5 64.5t50.5 61.5t73 45t99 17q129 0 199 -69.5 t70 -169.5q0 -80 -41 -136.5t-95.5 -98.5t-107.5 -74.5t-80 -67.5h336v-129h-535z" />
<glyph unicode="&#xbe;" horiz-adv-x="1585" d="M60 768l86 103q29 -33 75 -61.5t117 -28.5q68 0 111 26.5t43 77.5q0 96 -156 96h-76v117h76q59 0 87 25.5t28 60.5q0 45 -33 66.5t-84 21.5q-59 0 -94 -22.5t-57 -50.5l-86 92q37 47 99 81.5t144 34.5q123 0 192.5 -53t69.5 -149q0 -45 -27.5 -86t-74.5 -68 q70 -20 105.5 -67.5t35.5 -112.5q0 -53 -23.5 -94t-65.5 -70t-97.5 -44t-118.5 -15q-51 0 -93 11t-77 28.5t-61.5 39t-44.5 41.5zM391 0l723 1393h156l-721 -1393h-158zM885 178v107l334 446h180v-442h125v-111h-125v-178h-146v178h-368zM1038 289h215v289z" />
<glyph unicode="&#xbf;" horiz-adv-x="915" d="M65 -25q0 59 14.5 107.5t38 87.5t53 70.5t60.5 56.5l96 78q31 27 50.5 47t30.5 41.5t16.5 45t5.5 56.5v23h163q4 -16 8.5 -36t4.5 -36q0 -80 -35 -138.5t-115 -125.5l-96 -78q-53 -45 -80 -90t-27 -98q0 -90 60.5 -145.5t154.5 -55.5q100 0 161 50t79 136l154 -61 q-14 -57 -47 -112.5t-82.5 -96.5t-117 -66.5t-155.5 -25.5q-86 0 -157.5 27.5t-125 75.5t-83 116t-29.5 147zM389 782v244h243v-244h-243z" />
<glyph unicode="&#xc0;" horiz-adv-x="1366" d="M14 0l564 1393h213l561 -1393h-199l-135 336h-672l-133 -336h-199zM414 504h538l-268 676zM428 1837v6h191l147 -307v-6h-159z" />
<glyph unicode="&#xc1;" horiz-adv-x="1366" d="M14 0l564 1393h213l561 -1393h-199l-135 336h-672l-133 -336h-199zM414 504h538l-268 676zM604 1530v6l148 307h190v-6l-178 -307h-160z" />
<glyph unicode="&#xc2;" horiz-adv-x="1366" d="M14 0l564 1393h213l561 -1393h-199l-135 336h-672l-133 -336h-199zM342 1530v6l250 307h182l252 -307v-6h-172l-172 196l-168 -196h-172zM414 504h538l-268 676z" />
<glyph unicode="&#xc3;" horiz-adv-x="1366" d="M14 0l564 1393h213l561 -1393h-199l-135 336h-672l-133 -336h-199zM334 1602q63 195 219 194q51 0 89 -16.5t69 -36t58.5 -35.5t58.5 -16q39 0 62.5 28.5t41.5 73.5l119 -63q-63 -185 -219 -185q-51 0 -89 16.5t-69 37t-58.5 37t-58.5 16.5q-37 0 -61.5 -29t-40.5 -76z M414 504h538l-268 676z" />
<glyph unicode="&#xc4;" horiz-adv-x="1366" d="M14 0l564 1393h213l561 -1393h-199l-135 336h-672l-133 -336h-199zM342 1579v213h217v-213h-217zM414 504h538l-268 676zM807 1579v213h217v-213h-217z" />
<glyph unicode="&#xc5;" horiz-adv-x="1366" d="M14 0l564 1393h213l561 -1393h-199l-135 336h-672l-133 -336h-199zM414 504h538l-268 676zM460 1536q0 96 66.5 157.5t163.5 61.5q49 0 91 -16.5t72.5 -46t49 -69.5t18.5 -87t-18.5 -88t-49 -70t-72.5 -45t-91 -16q-96 0 -163 61.5t-67 157.5zM575 1536q0 -47 33 -79 t82 -32q47 0 79.5 32t32.5 79t-32.5 78.5t-79.5 31.5q-49 0 -82 -31.5t-33 -78.5z" />
<glyph unicode="&#xc6;" horiz-adv-x="1906" d="M-29 0v6l860 1387h977v-168h-714v-439h620v-168h-620v-450h714v-168h-903v326h-522l-197 -326h-215zM483 494h422v698z" />
<glyph unicode="&#xc7;" horiz-adv-x="1462" d="M86 696q0 152 52 284t145.5 229.5t221.5 152.5t279 55q213 0 372 -98t247 -262l-148 -101q-66 129 -183.5 206t-285.5 77q-115 0 -208 -42t-159.5 -114.5t-102 -172t-35.5 -214.5t35.5 -214t102 -171.5t160 -114.5t207.5 -42q168 0 286 76.5t183 205.5l148 -100 q-88 -164 -247 -262.5t-372 -98.5q-152 0 -279.5 55.5t-221 153t-145.5 229.5t-52 283zM572 -346l43 129q29 -16 56.5 -26.5t59.5 -10.5q53 0 80 25.5t27 66.5q0 59 -63.5 109.5t-170.5 52.5l238 16q72 -31 112 -89t40 -126q0 -92 -64.5 -145t-175.5 -53q-59 0 -104.5 14 t-77.5 37z" />
<glyph unicode="&#xc8;" horiz-adv-x="1218" d="M176 0v1393h944v-168h-755v-439h661v-168h-661v-450h755v-168h-944zM391 1837v6h191l147 -307v-6h-159z" />
<glyph unicode="&#xc9;" horiz-adv-x="1218" d="M176 0v1393h944v-168h-755v-439h661v-168h-661v-450h755v-168h-944zM567 1530v6l148 307h190v-6l-178 -307h-160z" />
<glyph unicode="&#xca;" horiz-adv-x="1218" d="M176 0v1393h944v-168h-755v-439h661v-168h-661v-450h755v-168h-944zM305 1530v6l250 307h182l252 -307v-6h-172l-172 196l-168 -196h-172z" />
<glyph unicode="&#xcb;" horiz-adv-x="1218" d="M176 0v1393h944v-168h-755v-439h661v-168h-661v-450h755v-168h-944zM306 1579v213h217v-213h-217zM771 1579v213h217v-213h-217z" />
<glyph unicode="&#xcc;" horiz-adv-x="540" d="M14 1837v6h191l147 -307v-6h-159zM176 0v1393h189v-1393h-189z" />
<glyph unicode="&#xcd;" horiz-adv-x="540" d="M176 0v1393h189v-1393h-189zM192 1530v6l148 307h190v-6l-178 -307h-160z" />
<glyph unicode="&#xce;" horiz-adv-x="540" d="M-69 1530v6l250 307h182l252 -307v-6h-172l-172 196l-168 -196h-172zM176 0v1393h189v-1393h-189z" />
<glyph unicode="&#xcf;" horiz-adv-x="540" d="M-69 1579v213h217v-213h-217zM176 0v1393h189v-1393h-189zM396 1579v213h217v-213h-217z" />
<glyph unicode="&#xd0;" horiz-adv-x="1488" d="M35 621v163h151v609h533q145 0 269 -46.5t215 -134.5t143.5 -218t52.5 -298t-52.5 -298t-143.5 -218t-215 -134t-269 -46h-533v621h-151zM375 168h332q113 0 205 34t156.5 100.5t100 165.5t35.5 228t-35.5 228.5t-100 166t-157 100.5t-204.5 34h-332v-441h383v-163h-383 v-453z" />
<glyph unicode="&#xd1;" horiz-adv-x="1558" d="M176 0v1393h166l852 -1078v1078h188v-1393h-165l-852 1077v-1077h-189zM430 1602q63 195 219 194q51 0 89 -16.5t69 -36t58.5 -35.5t58.5 -16q39 0 62.5 28.5t41.5 73.5l119 -63q-63 -185 -219 -185q-51 0 -89 16.5t-69 37t-58.5 37t-58.5 16.5q-37 0 -61.5 -29 t-40.5 -76z" />
<glyph unicode="&#xd2;" horiz-adv-x="1568" d="M86 696q0 152 52 284t145.5 229.5t221.5 152.5t279 55q152 0 280 -55t221 -152.5t145.5 -229.5t52.5 -284t-52.5 -283.5t-145.5 -229t-221 -153t-280 -55.5t-279.5 55.5t-221 153t-145.5 229.5t-52 283zM281 696q0 -115 35.5 -214t101 -171.5t158.5 -114.5t208 -42 t208 42t159 114.5t101.5 172t35.5 213.5q0 115 -35.5 214.5t-101.5 172t-159 114.5t-208 42t-208 -42t-158.5 -114.5t-101 -172t-35.5 -214.5zM526 1837v6h191l147 -307v-6h-159z" />
<glyph unicode="&#xd3;" horiz-adv-x="1568" d="M86 696q0 152 52 284t145.5 229.5t221.5 152.5t279 55q152 0 280 -55t221 -152.5t145.5 -229.5t52.5 -284t-52.5 -283.5t-145.5 -229t-221 -153t-280 -55.5t-279.5 55.5t-221 153t-145.5 229.5t-52 283zM281 696q0 -115 35.5 -214t101 -171.5t158.5 -114.5t208 -42 t208 42t159 114.5t101.5 172t35.5 213.5q0 115 -35.5 214.5t-101.5 172t-159 114.5t-208 42t-208 -42t-158.5 -114.5t-101 -172t-35.5 -214.5zM704 1530v6l148 307h190v-6l-178 -307h-160z" />
<glyph unicode="&#xd4;" horiz-adv-x="1568" d="M86 696q0 152 52 284t145.5 229.5t221.5 152.5t279 55q152 0 280 -55t221 -152.5t145.5 -229.5t52.5 -284t-52.5 -283.5t-145.5 -229t-221 -153t-280 -55.5t-279.5 55.5t-221 153t-145.5 229.5t-52 283zM281 696q0 -115 35.5 -214t101 -171.5t158.5 -114.5t208 -42 t208 42t159 114.5t101.5 172t35.5 213.5q0 115 -35.5 214.5t-101.5 172t-159 114.5t-208 42t-208 -42t-158.5 -114.5t-101 -172t-35.5 -214.5zM443 1530v6l250 307h182l252 -307v-6h-172l-172 196l-168 -196h-172z" />
<glyph unicode="&#xd5;" horiz-adv-x="1568" d="M86 696q0 152 52 284t145.5 229.5t221.5 152.5t279 55q152 0 280 -55t221 -152.5t145.5 -229.5t52.5 -284t-52.5 -283.5t-145.5 -229t-221 -153t-280 -55.5t-279.5 55.5t-221 153t-145.5 229.5t-52 283zM281 696q0 -115 35.5 -214t101 -171.5t158.5 -114.5t208 -42 t208 42t159 114.5t101.5 172t35.5 213.5q0 115 -35.5 214.5t-101.5 172t-159 114.5t-208 42t-208 -42t-158.5 -114.5t-101 -172t-35.5 -214.5zM434 1602q63 195 219 194q51 0 89 -16.5t69 -36t58.5 -35.5t58.5 -16q39 0 62.5 28.5t41.5 73.5l119 -63q-63 -185 -219 -185 q-51 0 -89 16.5t-69 37t-58.5 37t-58.5 16.5q-37 0 -61.5 -29t-40.5 -76z" />
<glyph unicode="&#xd6;" horiz-adv-x="1568" d="M86 696q0 152 52 284t145.5 229.5t221.5 152.5t279 55q152 0 280 -55t221 -152.5t145.5 -229.5t52.5 -284t-52.5 -283.5t-145.5 -229t-221 -153t-280 -55.5t-279.5 55.5t-221 153t-145.5 229.5t-52 283zM281 696q0 -115 35.5 -214t101 -171.5t158.5 -114.5t208 -42 t208 42t159 114.5t101.5 172t35.5 213.5q0 115 -35.5 214.5t-101.5 172t-159 114.5t-208 42t-208 -42t-158.5 -114.5t-101 -172t-35.5 -214.5zM443 1579v213h217v-213h-217zM908 1579v213h217v-213h-217z" />
<glyph unicode="&#xd7;" d="M205 328l295 290l-295 295l114 115l295 -295l293 295l117 -115l-295 -295l295 -290l-117 -117l-293 293l-295 -293z" />
<glyph unicode="&#xd8;" horiz-adv-x="1568" d="M86 696q0 152 52 284t145.5 229.5t221.5 152.5t279 55q76 0 144.5 -14t132.5 -41l61 106h205v-6l-110 -192q125 -98 195.5 -245.5t70.5 -328.5q0 -152 -52.5 -283.5t-145.5 -229t-221 -153t-280 -55.5q-78 0 -148.5 14.5t-133.5 41.5l-62 -107h-207v6l113 195 q-123 98 -191.5 245.5t-68.5 325.5zM281 696q0 -127 40.5 -232.5t118.5 -178.5l531 919q-86 35 -187 35q-115 0 -208 -42t-158.5 -114.5t-101 -172t-35.5 -214.5zM590 190q85 -36 194 -36q115 0 208 42t159 114.5t101.5 172t35.5 213.5q0 129 -44 235.5t-124 180.5z" />
<glyph unicode="&#xd9;" horiz-adv-x="1458" d="M160 586v807h188v-791q0 -209 94.5 -328.5t286.5 -119.5q190 0 285.5 120.5t95.5 327.5v791h188v-807q0 -135 -37.5 -247t-110.5 -192.5t-178.5 -126t-242.5 -45.5t-242.5 45.5t-178 126t-110.5 192.5t-38 247zM473 1837v6h191l147 -307v-6h-159z" />
<glyph unicode="&#xda;" horiz-adv-x="1458" d="M160 586v807h188v-791q0 -209 94.5 -328.5t286.5 -119.5q190 0 285.5 120.5t95.5 327.5v791h188v-807q0 -135 -37.5 -247t-110.5 -192.5t-178.5 -126t-242.5 -45.5t-242.5 45.5t-178 126t-110.5 192.5t-38 247zM649 1530v6l148 307h190v-6l-178 -307h-160z" />
<glyph unicode="&#xdb;" horiz-adv-x="1458" d="M160 586v807h188v-791q0 -209 94.5 -328.5t286.5 -119.5q190 0 285.5 120.5t95.5 327.5v791h188v-807q0 -135 -37.5 -247t-110.5 -192.5t-178.5 -126t-242.5 -45.5t-242.5 45.5t-178 126t-110.5 192.5t-38 247zM387 1530v6l250 307h182l252 -307v-6h-172l-172 196 l-168 -196h-172z" />
<glyph unicode="&#xdc;" horiz-adv-x="1458" d="M160 586v807h188v-791q0 -209 94.5 -328.5t286.5 -119.5q190 0 285.5 120.5t95.5 327.5v791h188v-807q0 -135 -37.5 -247t-110.5 -192.5t-178.5 -126t-242.5 -45.5t-242.5 45.5t-178 126t-110.5 192.5t-38 247zM387 1579v213h217v-213h-217zM852 1579v213h217v-213h-217z " />
<glyph unicode="&#xdd;" horiz-adv-x="1286" d="M18 1386v7h222l403 -609l404 609h219v-7l-529 -790v-596h-188v596zM563 1530v6l148 307h190v-6l-178 -307h-160z" />
<glyph unicode="&#xde;" horiz-adv-x="1214" d="M176 0v1393h189v-269h313q223 0 350 -107.5t127 -311.5q0 -205 -127 -311.5t-350 -106.5h-313v-287h-189zM365 455h292q303 0 304 250q0 252 -304 251h-292v-501z" />
<glyph unicode="&#xdf;" horiz-adv-x="1226" d="M141 0v1049q0 96 30 175t85 134t135 86t180 31t179 -30t134.5 -80t84 -115.5t28.5 -139.5q0 -193 -157 -279q68 -20 124 -56t98 -87t65.5 -117.5t23.5 -146.5q0 -109 -38 -191.5t-103.5 -139t-151.5 -85t-182 -28.5q-53 0 -95 6t-92 18l25 166q37 -12 70.5 -17.5 t66.5 -5.5q68 0 125.5 20.5t99.5 58.5t64.5 90.5t22.5 117.5q0 66 -25 120t-66 92t-97 58.5t-120 20.5h-110v152h14q68 0 116 17t77.5 47t43 69t13.5 82q0 90 -61.5 152.5t-178.5 62.5t-180 -68t-63 -176v-1063h-185z" />
<glyph unicode="&#xe0;" horiz-adv-x="1255" d="M78 514q0 119 38 217t104.5 169t158.5 110t201 39q111 0 200.5 -45.5t149.5 -122.5v145h184v-1026h-184v145q-59 -78 -149.5 -123t-200.5 -45q-109 0 -201 39t-158.5 110t-104.5 169t-38 219zM266 514q0 -86 26.5 -154.5t74 -115.5t110.5 -73t135 -26q109 0 193 51.5 t125 137.5v356q-41 86 -125 138.5t-193 52.5q-72 0 -135 -26t-110.5 -73t-74 -114.5t-26.5 -153.5zM376 1495v6h191l147 -307v-6h-159z" />
<glyph unicode="&#xe1;" horiz-adv-x="1255" d="M78 514q0 119 38 217t104.5 169t158.5 110t201 39q111 0 200.5 -45.5t149.5 -122.5v145h184v-1026h-184v145q-59 -78 -149.5 -123t-200.5 -45q-109 0 -201 39t-158.5 110t-104.5 169t-38 219zM266 514q0 -86 26.5 -154.5t74 -115.5t110.5 -73t135 -26q109 0 193 51.5 t125 137.5v356q-41 86 -125 138.5t-193 52.5q-72 0 -135 -26t-110.5 -73t-74 -114.5t-26.5 -153.5zM553 1188v6l148 307h190v-6l-178 -307h-160z" />
<glyph unicode="&#xe2;" horiz-adv-x="1255" d="M78 514q0 119 38 217t104.5 169t158.5 110t201 39q111 0 200.5 -45.5t149.5 -122.5v145h184v-1026h-184v145q-59 -78 -149.5 -123t-200.5 -45q-109 0 -201 39t-158.5 110t-104.5 169t-38 219zM266 514q0 -86 26.5 -154.5t74 -115.5t110.5 -73t135 -26q109 0 193 51.5 t125 137.5v356q-41 86 -125 138.5t-193 52.5q-72 0 -135 -26t-110.5 -73t-74 -114.5t-26.5 -153.5zM293 1188v6l250 307h182l252 -307v-6h-172l-172 196l-168 -196h-172z" />
<glyph unicode="&#xe3;" horiz-adv-x="1255" d="M78 514q0 119 38 217t104.5 169t158.5 110t201 39q111 0 200.5 -45.5t149.5 -122.5v145h184v-1026h-184v145q-59 -78 -149.5 -123t-200.5 -45q-109 0 -201 39t-158.5 110t-104.5 169t-38 219zM266 514q0 -86 26.5 -154.5t74 -115.5t110.5 -73t135 -26q109 0 193 51.5 t125 137.5v356q-41 86 -125 138.5t-193 52.5q-72 0 -135 -26t-110.5 -73t-74 -114.5t-26.5 -153.5zM283 1260q63 195 219 194q51 0 89 -16.5t69 -36t58.5 -35.5t58.5 -16q39 0 62.5 28.5t41.5 73.5l119 -63q-63 -185 -219 -185q-51 0 -89 16.5t-69 37t-58.5 37t-58.5 16.5 q-37 0 -61.5 -29t-40.5 -76z" />
<glyph unicode="&#xe4;" horiz-adv-x="1255" d="M78 514q0 119 38 217t104.5 169t158.5 110t201 39q111 0 200.5 -45.5t149.5 -122.5v145h184v-1026h-184v145q-59 -78 -149.5 -123t-200.5 -45q-109 0 -201 39t-158.5 110t-104.5 169t-38 219zM266 514q0 -86 26.5 -154.5t74 -115.5t110.5 -73t135 -26q109 0 193 51.5 t125 137.5v356q-41 86 -125 138.5t-193 52.5q-72 0 -135 -26t-110.5 -73t-74 -114.5t-26.5 -153.5zM291 1237v213h217v-213h-217zM756 1237v213h217v-213h-217z" />
<glyph unicode="&#xe5;" horiz-adv-x="1255" d="M78 514q0 119 38 217t104.5 169t158.5 110t201 39q111 0 200.5 -45.5t149.5 -122.5v145h184v-1026h-184v145q-59 -78 -149.5 -123t-200.5 -45q-109 0 -201 39t-158.5 110t-104.5 169t-38 219zM266 514q0 -86 26.5 -154.5t74 -115.5t110.5 -73t135 -26q109 0 193 51.5 t125 137.5v356q-41 86 -125 138.5t-193 52.5q-72 0 -135 -26t-110.5 -73t-74 -114.5t-26.5 -153.5zM403 1358q0 96 66.5 157.5t163.5 61.5q49 0 91 -16.5t72.5 -46t49 -69.5t18.5 -87t-18.5 -88t-49 -70t-72.5 -45t-91 -16q-96 0 -163 61.5t-67 157.5zM518 1358 q0 -47 33 -79t82 -32q47 0 79.5 32t32.5 79t-32.5 78.5t-79.5 31.5q-49 0 -82 -31.5t-33 -78.5z" />
<glyph unicode="&#xe6;" horiz-adv-x="1816" d="M66 287q0 143 103 231t314 88h273v33q-4 100 -67.5 169t-201.5 69q-92 0 -164.5 -36t-125.5 -102l-88 140q39 39 79.5 69.5t88 52t101.5 32.5t120 11q131 0 223 -47t139 -135q66 88 165 137.5t228 49.5q111 0 202 -39t155.5 -106.5t100.5 -160t36 -198.5q0 -23 -2 -49.5 t-6 -42.5h-805q16 -143 105 -227.5t239 -84.5q104 0 191 50.5t143 130.5l112 -117q-78 -104 -192.5 -167t-261.5 -63q-131 0 -232.5 47.5t-167.5 129.5q-76 -76 -179.5 -126.5t-246.5 -50.5q-86 0 -155.5 24t-118.5 65.5t-76.5 98t-27.5 124.5zM250 297q0 -63 53 -109.5 t168 -46.5q96 0 177.5 41t142.5 111q-29 78 -35 160h-252q-131 0 -192.5 -41t-61.5 -115zM938 606h627q-12 129 -99.5 205t-212.5 76t-208.5 -74t-106.5 -207z" />
<glyph unicode="&#xe7;" horiz-adv-x="1114" d="M78 514q0 111 37 208t105.5 170t164.5 115t217 42q154 0 268.5 -69t184.5 -192l-137 -96q-47 86 -126 137.5t-184 51.5q-74 0 -136 -26t-108.5 -74t-72 -115.5t-25.5 -151.5q0 -86 25.5 -153.5t72 -115.5t109 -74t135.5 -26q104 0 183 51.5t127 137.5l137 -96 q-70 -123 -184.5 -192t-268.5 -69q-121 0 -217 42t-164.5 115t-105.5 171t-37 209zM392 -317l41 112q29 -16 55 -25.5t57 -9.5q53 0 79 23.5t26 64.5q0 57 -61.5 103.5t-166.5 48.5l228 16q66 -29 103.5 -82t37.5 -118q0 -80 -59.5 -131.5t-163.5 -51.5q-57 0 -100.5 14.5 t-75.5 35.5z" />
<glyph unicode="&#xe8;" horiz-adv-x="1146" d="M80 512q0 119 37 218t104.5 170t160.5 110t204 39t201 -39t154.5 -106.5t100 -160t35.5 -198.5q0 -23 -2 -48.5t-6 -47.5h-803q16 -141 104.5 -224.5t237.5 -83.5q104 0 192.5 50.5t141.5 130.5l113 -117q-78 -104 -193 -167t-262 -63q-117 0 -213 41t-164.5 113 t-105.5 170t-37 213zM268 602h623q-10 133 -95 209t-210 76q-127 0 -211 -75t-107 -210zM329 1495v6h191l147 -307v-6h-159z" />
<glyph unicode="&#xe9;" horiz-adv-x="1146" d="M80 512q0 119 37 218t104.5 170t160.5 110t204 39t201 -39t154.5 -106.5t100 -160t35.5 -198.5q0 -23 -2 -48.5t-6 -47.5h-803q16 -141 104.5 -224.5t237.5 -83.5q104 0 192.5 50.5t141.5 130.5l113 -117q-78 -104 -193 -167t-262 -63q-117 0 -213 41t-164.5 113 t-105.5 170t-37 213zM268 602h623q-10 133 -95 209t-210 76q-127 0 -211 -75t-107 -210zM506 1188v6l148 307h190v-6l-178 -307h-160z" />
<glyph unicode="&#xea;" horiz-adv-x="1146" d="M80 512q0 119 37 218t104.5 170t160.5 110t204 39t201 -39t154.5 -106.5t100 -160t35.5 -198.5q0 -23 -2 -48.5t-6 -47.5h-803q16 -141 104.5 -224.5t237.5 -83.5q104 0 192.5 50.5t141.5 130.5l113 -117q-78 -104 -193 -167t-262 -63q-117 0 -213 41t-164.5 113 t-105.5 170t-37 213zM246 1188v6l250 307h182l252 -307v-6h-172l-172 196l-168 -196h-172zM268 602h623q-10 133 -95 209t-210 76q-127 0 -211 -75t-107 -210z" />
<glyph unicode="&#xeb;" horiz-adv-x="1146" d="M80 512q0 119 37 218t104.5 170t160.5 110t204 39t201 -39t154.5 -106.5t100 -160t35.5 -198.5q0 -23 -2 -48.5t-6 -47.5h-803q16 -141 104.5 -224.5t237.5 -83.5q104 0 192.5 50.5t141.5 130.5l113 -117q-78 -104 -193 -167t-262 -63q-117 0 -213 41t-164.5 113 t-105.5 170t-37 213zM246 1237v213h217v-213h-217zM268 602h623q-10 133 -95 209t-210 76q-127 0 -211 -75t-107 -210zM711 1237v213h217v-213h-217z" />
<glyph unicode="&#xec;" horiz-adv-x="466" d="M-23 1495v6h191l147 -307v-6h-159zM141 0v1026h185v-1026h-185z" />
<glyph unicode="&#xed;" horiz-adv-x="466" d="M141 0v1026h185v-1026h-185zM155 1188v6l148 307h190v-6l-178 -307h-160z" />
<glyph unicode="&#xee;" horiz-adv-x="466" d="M-106 1188v6l250 307h182l252 -307v-6h-172l-172 196l-168 -196h-172zM141 0v1026h185v-1026h-185z" />
<glyph unicode="&#xef;" horiz-adv-x="466" d="M-106 1237v213h217v-213h-217zM141 0v1026h185v-1026h-185zM359 1237v213h217v-213h-217z" />
<glyph unicode="&#xf0;" horiz-adv-x="1191" d="M80 494q0 111 37 202.5t99.5 158.5t146 103.5t178.5 36.5q188 0 307 -118q-35 74 -85 145.5t-116 140.5l-272 -90l-39 123l207 70q-51 47 -107.5 91t-120.5 91v6h232q84 -57 168 -131l246 82l36 -125l-180 -59q131 -147 211 -318.5t80 -349.5q0 -125 -36 -231.5 t-102.5 -183.5t-161.5 -120t-214 -43t-214 41t-161.5 112t-102.5 165t-36 201zM268 487q0 -80 24.5 -143t69 -107t103.5 -69t129 -25t129 27t103 79t69 129t25 175q0 47 -7 90q-61 106 -148 149.5t-177 43.5q-68 0 -126.5 -25t-101.5 -70t-67.5 -109.5t-24.5 -144.5z" />
<glyph unicode="&#xf1;" horiz-adv-x="1202" d="M141 0v1026h185v-156q41 68 125 123.5t213 55.5q201 0 304 -120t103 -331v-598h-184v580q0 147 -71 224t-202 77q-57 0 -105 -17.5t-85 -46.5t-61.5 -66.5t-36.5 -80.5v-670h-185zM252 1260q63 195 219 194q51 0 89 -16.5t69 -36t58.5 -35.5t58.5 -16q39 0 62.5 28.5 t41.5 73.5l119 -63q-63 -185 -219 -185q-51 0 -89 16.5t-69 37t-58.5 37t-58.5 16.5q-37 0 -61.5 -29t-40.5 -76z" />
<glyph unicode="&#xf2;" horiz-adv-x="1212" d="M78 512q0 111 37 209t104.5 171t165.5 115t221 42t221.5 -42t166 -115t104.5 -171t37 -209t-37 -208t-104.5 -171t-166 -116t-221.5 -42t-221 42t-165.5 116t-104.5 171t-37 208zM266 512q0 -84 26.5 -152.5t73 -116.5t107.5 -74t133 -26t133.5 26t107.5 74t72.5 116.5 t26.5 152.5t-26.5 152.5t-72.5 116.5t-107.5 74t-133.5 26t-133 -26t-107.5 -74t-73 -116.5t-26.5 -152.5zM350 1495v6h191l147 -307v-6h-159z" />
<glyph unicode="&#xf3;" horiz-adv-x="1212" d="M78 512q0 111 37 209t104.5 171t165.5 115t221 42t221.5 -42t166 -115t104.5 -171t37 -209t-37 -208t-104.5 -171t-166 -116t-221.5 -42t-221 42t-165.5 116t-104.5 171t-37 208zM266 512q0 -84 26.5 -152.5t73 -116.5t107.5 -74t133 -26t133.5 26t107.5 74t72.5 116.5 t26.5 152.5t-26.5 152.5t-72.5 116.5t-107.5 74t-133.5 26t-133 -26t-107.5 -74t-73 -116.5t-26.5 -152.5zM526 1188v6l148 307h190v-6l-178 -307h-160z" />
<glyph unicode="&#xf4;" horiz-adv-x="1212" d="M78 512q0 111 37 209t104.5 171t165.5 115t221 42t221.5 -42t166 -115t104.5 -171t37 -209t-37 -208t-104.5 -171t-166 -116t-221.5 -42t-221 42t-165.5 116t-104.5 171t-37 208zM266 512q0 -84 26.5 -152.5t73 -116.5t107.5 -74t133 -26t133.5 26t107.5 74t72.5 116.5 t26.5 152.5t-26.5 152.5t-72.5 116.5t-107.5 74t-133.5 26t-133 -26t-107.5 -74t-73 -116.5t-26.5 -152.5zM266 1188v6l250 307h182l252 -307v-6h-172l-172 196l-168 -196h-172z" />
<glyph unicode="&#xf5;" horiz-adv-x="1212" d="M78 512q0 111 37 209t104.5 171t165.5 115t221 42t221.5 -42t166 -115t104.5 -171t37 -209t-37 -208t-104.5 -171t-166 -116t-221.5 -42t-221 42t-165.5 116t-104.5 171t-37 208zM256 1260q63 195 219 194q51 0 89 -16.5t69 -36t58.5 -35.5t58.5 -16q39 0 62.5 28.5 t41.5 73.5l119 -63q-63 -185 -219 -185q-51 0 -89 16.5t-69 37t-58.5 37t-58.5 16.5q-37 0 -61.5 -29t-40.5 -76zM266 512q0 -84 26.5 -152.5t73 -116.5t107.5 -74t133 -26t133.5 26t107.5 74t72.5 116.5t26.5 152.5t-26.5 152.5t-72.5 116.5t-107.5 74t-133.5 26t-133 -26 t-107.5 -74t-73 -116.5t-26.5 -152.5z" />
<glyph unicode="&#xf6;" horiz-adv-x="1212" d="M78 512q0 111 37 209t104.5 171t165.5 115t221 42t221.5 -42t166 -115t104.5 -171t37 -209t-37 -208t-104.5 -171t-166 -116t-221.5 -42t-221 42t-165.5 116t-104.5 171t-37 208zM266 512q0 -84 26.5 -152.5t73 -116.5t107.5 -74t133 -26t133.5 26t107.5 74t72.5 116.5 t26.5 152.5t-26.5 152.5t-72.5 116.5t-107.5 74t-133.5 26t-133 -26t-107.5 -74t-73 -116.5t-26.5 -152.5zM267 1237v213h217v-213h-217zM732 1237v213h217v-213h-217z" />
<glyph unicode="&#xf7;" d="M139 539v161h953v-161h-953zM506 121v225h225v-225h-225zM506 893v225h225v-225h-225z" />
<glyph unicode="&#xf8;" horiz-adv-x="1212" d="M78 512q0 111 37 209t104.5 171t165.5 115t221 42q104 0 197 -35l53 92h182v-6l-94 -164q92 -74 141.5 -184.5t49.5 -239.5q0 -111 -37 -208t-104.5 -171t-166 -116t-221.5 -42q-55 0 -104 8.5t-94 24.5l-52 -90h-184v6l94 164q-92 74 -140 184.5t-48 239.5zM266 512 q0 -84 24.5 -150.5t67.5 -113.5l359 614q-53 18 -111 19q-72 0 -133 -26t-107.5 -74t-73 -116.5t-26.5 -152.5zM494 160q55 -17 112 -17q72 0 133.5 26t107.5 74t72.5 116.5t26.5 152.5t-25.5 150.5t-70.5 113.5z" />
<glyph unicode="&#xf9;" horiz-adv-x="1202" d="M131 428v598h184v-580q0 -147 71 -224t202 -77q57 0 105 17.5t85 46.5t61.5 66.5t37.5 80.5v670h184v-1026h-184v156q-41 -68 -125 -123.5t-213 -55.5q-201 0 -304.5 120t-103.5 331zM344 1495v6h191l147 -307v-6h-159z" />
<glyph unicode="&#xfa;" horiz-adv-x="1202" d="M131 428v598h184v-580q0 -147 71 -224t202 -77q57 0 105 17.5t85 46.5t61.5 66.5t37.5 80.5v670h184v-1026h-184v156q-41 -68 -125 -123.5t-213 -55.5q-201 0 -304.5 120t-103.5 331zM516 1188v6l148 307h190v-6l-178 -307h-160z" />
<glyph unicode="&#xfb;" horiz-adv-x="1202" d="M131 428v598h184v-580q0 -147 71 -224t202 -77q57 0 105 17.5t85 46.5t61.5 66.5t37.5 80.5v670h184v-1026h-184v156q-41 -68 -125 -123.5t-213 -55.5q-201 0 -304.5 120t-103.5 331zM260 1188v6l250 307h182l252 -307v-6h-172l-172 196l-168 -196h-172z" />
<glyph unicode="&#xfc;" horiz-adv-x="1202" d="M131 428v598h184v-580q0 -147 71 -224t202 -77q57 0 105 17.5t85 46.5t61.5 66.5t37.5 80.5v670h184v-1026h-184v156q-41 -68 -125 -123.5t-213 -55.5q-201 0 -304.5 120t-103.5 331zM256 1237v213h217v-213h-217zM721 1237v213h217v-213h-217z" />
<glyph unicode="&#xfd;" horiz-adv-x="1064" d="M25 1026h196l326 -704l305 704h197l-621 -1403h-197l222 494zM452 1188v6l148 307h190v-6l-178 -307h-160z" />
<glyph unicode="&#xfe;" horiz-adv-x="1253" d="M141 -377v1831h185v-573q59 78 148 123t200 45q109 0 201 -39t158.5 -110t104.5 -169t38 -217q0 -121 -38 -219t-104.5 -169t-159 -110t-200.5 -39q-111 0 -200 45.5t-148 120.5v-520h-185zM326 334q41 -86 123.5 -137.5t191.5 -51.5q72 0 135.5 25t110.5 73t73.5 116.5 t26.5 154.5t-26.5 153.5t-73.5 115.5t-110.5 73t-135.5 25q-109 0 -191.5 -51.5t-123.5 -137.5v-358z" />
<glyph unicode="&#xff;" horiz-adv-x="1064" d="M25 1026h196l326 -704l305 704h197l-621 -1403h-197l222 494zM193 1237v213h217v-213h-217zM658 1237v213h217v-213h-217z" />
<glyph unicode="&#x152;" horiz-adv-x="2000" d="M86 696q0 152 53.5 284t146.5 229.5t223 152.5t284 55q53 0 104 -7t98 -17h908v-168h-725v-439h630v-168h-630v-450h725v-168h-908q-47 -10 -98 -17.5t-104 -7.5q-154 0 -284 55.5t-223 153t-146.5 229.5t-53.5 283zM281 696q0 -115 36.5 -214t103 -171.5t161 -114.5 t211.5 -42q53 0 102 9t94 23v1018q-45 16 -94 25.5t-102 9.5q-117 0 -211.5 -42t-161 -114.5t-103 -172t-36.5 -214.5z" />
<glyph unicode="&#x153;" horiz-adv-x="2011" d="M78 512q0 111 37 209t104.5 171t164.5 115t220 42q147 0 257 -62.5t173 -169.5q63 111 170 171.5t248 60.5q111 0 201 -39t154.5 -106.5t99.5 -160t35 -198.5q0 -23 -2.5 -48.5t-6.5 -47.5h-800q16 -141 105 -224.5t232 -83.5q106 0 193.5 50.5t142.5 130.5l113 -117 q-78 -104 -191 -167t-260 -63t-256.5 61.5t-175.5 172.5q-63 -109 -172.5 -171.5t-259.5 -62.5q-123 0 -220 42t-164.5 116t-104.5 171t-37 208zM266 512q0 -84 26.5 -152.5t73 -116.5t108.5 -74t134 -26t134.5 26t108.5 74t72.5 116.5t26.5 152.5t-26.5 152.5t-72.5 116.5 t-108.5 74t-134.5 26t-134 -26t-108.5 -74t-73 -116.5t-26.5 -152.5zM1135 602h626q-6 66 -31.5 119t-67.5 90t-96.5 56.5t-117.5 19.5q-125 0 -209 -75t-104 -210z" />
<glyph unicode="&#x178;" horiz-adv-x="1286" d="M18 1386v7h222l403 -609l404 609h219v-7l-529 -790v-596h-188v596zM301 1579v213h217v-213h-217zM766 1579v213h217v-213h-217z" />
<glyph unicode="&#x2c6;" d="M293 1188v6l250 307h182l252 -307v-6h-172l-172 196l-168 -196h-172z" />
<glyph unicode="&#x2dc;" d="M217 1260q63 195 219 194q51 0 89 -16.5t69 -36t58.5 -35.5t58.5 -16q39 0 62.5 28.5t41.5 73.5l119 -63q-63 -185 -219 -185q-51 0 -89 16.5t-69 37t-58.5 37t-58.5 16.5q-37 0 -61.5 -29t-40.5 -76z" />
<glyph unicode="&#x2000;" horiz-adv-x="921" />
<glyph unicode="&#x2001;" horiz-adv-x="1843" />
<glyph unicode="&#x2002;" horiz-adv-x="921" />
<glyph unicode="&#x2003;" horiz-adv-x="1843" />
<glyph unicode="&#x2004;" horiz-adv-x="614" />
<glyph unicode="&#x2005;" horiz-adv-x="460" />
<glyph unicode="&#x2006;" horiz-adv-x="307" />
<glyph unicode="&#x2007;" horiz-adv-x="307" />
<glyph unicode="&#x2008;" horiz-adv-x="230" />
<glyph unicode="&#x2009;" horiz-adv-x="368" />
<glyph unicode="&#x200a;" horiz-adv-x="102" />
<glyph unicode="&#x2010;" horiz-adv-x="833" d="M125 545v151h584v-151h-584z" />
<glyph unicode="&#x2011;" horiz-adv-x="833" d="M125 545v151h584v-151h-584z" />
<glyph unicode="&#x2012;" horiz-adv-x="833" d="M125 545v151h584v-151h-584z" />
<glyph unicode="&#x2013;" horiz-adv-x="1181" d="M125 545v151h932v-151h-932z" />
<glyph unicode="&#x2014;" horiz-adv-x="1904" d="M125 545v151h1655v-151h-1655z" />
<glyph unicode="&#x2018;" horiz-adv-x="464" d="M113 866v205l104 322h117l-94 -295h104v-232h-231z" />
<glyph unicode="&#x2019;" horiz-adv-x="448" d="M121 1161v232h231v-205l-104 -322h-117l94 295h-104z" />
<glyph unicode="&#x201a;" horiz-adv-x="485" d="M127 0v231h231v-204l-104 -322h-117l94 295h-104z" />
<glyph unicode="&#x201c;" horiz-adv-x="835" d="M113 866v205l104 322h117l-94 -295h104v-232h-231zM483 866v205l105 322h117l-95 -295h105v-232h-232z" />
<glyph unicode="&#x201d;" horiz-adv-x="819" d="M121 1161v232h231v-205l-104 -322h-117l94 295h-104zM492 1161v232h231v-205l-105 -322h-116l94 295h-104z" />
<glyph unicode="&#x201e;" horiz-adv-x="856" d="M127 0v231h231v-204l-104 -322h-117l94 295h-104zM498 0v231h231v-204l-104 -322h-117l94 295h-104z" />
<glyph unicode="&#x2022;" horiz-adv-x="819" d="M170 616q0 100 65.5 167t174.5 67t174 -66.5t65 -167.5q0 -100 -65 -166.5t-174 -66.5t-174.5 66.5t-65.5 166.5z" />
<glyph unicode="&#x2026;" horiz-adv-x="1411" d="M125 0v244h244v-244h-244zM584 0v244h244v-244h-244zM1043 0v244h244v-244h-244z" />
<glyph unicode="&#x202f;" horiz-adv-x="368" />
<glyph unicode="&#x2039;" horiz-adv-x="673" d="M70 590v57l336 371h182v-6l-336 -394l336 -393v-6h-182z" />
<glyph unicode="&#x203a;" horiz-adv-x="673" d="M86 219v6l336 393l-336 394v6h182l336 -371v-57l-336 -371h-182z" />
<glyph unicode="&#x205f;" horiz-adv-x="460" />
<glyph unicode="&#x20ac;" d="M45 459v162h125q-2 18 -2 36.5v38.5v37t2 37h-125v162h150q29 111 82 201t127.5 153.5t167 97t198.5 33.5q127 0 233.5 -55t186.5 -166l-121 -127q-111 170 -295 170q-139 0 -238.5 -79t-142.5 -228h533v-162h-561q-2 -18 -2.5 -36.5t-0.5 -37.5v-38.5t3 -36.5h561v-162 h-533q45 -150 144.5 -227.5t236.5 -77.5q184 0 295 170l121 -127q-80 -111 -186.5 -166.5t-233.5 -55.5q-104 0 -197.5 34t-167 96.5t-128 152.5t-80.5 201h-152z" />
<glyph unicode="&#x2122;" horiz-adv-x="1466" d="M68 1278v115h487v-115h-180v-487h-127v487h-180zM653 791v602h170l166 -408l164 408h170v-602h-127v415l-160 -415h-94l-162 415v-415h-127z" />
<glyph unicode="&#x25fc;" horiz-adv-x="1024" d="M0 0v1024h1024v-1024h-1024z" />
<glyph unicode="&#xfb01;" horiz-adv-x="1134" d="M51 874v152h172v113q0 143 84 235t250 92h37.5t36.5 -2v-153h-31q-98 0 -145 -41t-47 -133v-111h223v-152h-223v-874h-185v874h-172zM801 1260v221h199v-221h-199zM809 0v1026h185v-1026h-185z" />
<glyph unicode="&#xfb02;" horiz-adv-x="1134" d="M51 874v152h172v113q0 143 84 235t250 92h37.5t36.5 -2v-153h-31q-98 0 -145 -41t-47 -133v-111h223v-152h-223v-874h-185v874h-172zM809 0v1454h185v-1454h-185z" />
</font>
</defs>
</svg>
