<?xml version="1.0" standalone="no"?>
<!DOCTYPE svg PUBLIC "-//W3C//DTD SVG 1.1//EN" "http://www.w3.org/Graphics/SVG/1.1/DTD/svg11.dtd" >
<svg xmlns="http://www.w3.org/2000/svg" xmlns:xlink="http://www.w3.org/1999/xlink" version="1.1">
<metadata>
Created by FontForge 20141024 at Thu Jan 14 03:55:20 2016
 By Jimmy Warting
Beta font for internal testing.
</metadata>
<defs>
<font id="HyundaiSansHead-ExtraLightBETA" horiz-adv-x="594" >
  <font-face 
    font-family="Hyundai Sans Head ExtLt BETA"
    font-weight="300"
    font-stretch="normal"
    units-per-em="1000"
    panose-1="2 11 3 4 4 0 0 0 0 0"
    ascent="750"
    descent="-250"
    x-height="486"
    cap-height="680"
    bbox="0 -206 952 785"
    underline-thickness="44"
    underline-position="-46"
    stemh="48"
    stemv="50"
    unicode-range="U+000D-2192"
  />
<missing-glyph horiz-adv-x="638" 
d="M86 710h466v-740h-466v740zM136 18h366v644h-366v-644z" />
    <glyph glyph-name=".notdef" horiz-adv-x="638" 
d="M86 710h466v-740h-466v740zM136 18h366v644h-366v-644z" />
    <glyph glyph-name="B" unicode="B" horiz-adv-x="655" 
d="M98 680h241c144 0 216 -69 216 -178c0 -64 -34 -114 -91 -142c80 -19 145 -68 145 -172c0 -111 -77 -188 -230 -188h-281v680zM557 188c0 87 -58 139 -181 139h-228v-279h228c123 0 181 53 181 140zM148 375h188c112 0 167 47 167 128s-55 129 -167 129h-188v-257z" />
    <glyph glyph-name="C" unicode="C" horiz-adv-x="722" 
d="M385 -10c-194 0 -335 157 -335 350s141 350 335 350c135 0 245 -75 299 -186l-44 -24c-44 96 -137 160 -255 160c-169 0 -283 -130 -283 -300s114 -300 283 -300c118 0 211 64 255 160l44 -24c-54 -111 -164 -186 -299 -186z" />
    <glyph glyph-name="D" unicode="D" horiz-adv-x="716" 
d="M340 0h-242v680h242c181 0 324 -121 324 -340s-143 -340 -324 -340zM612 340c0 192 -113 292 -278 292h-186v-584h186c165 0 278 100 278 292z" />
    <glyph glyph-name="E" unicode="E" horiz-adv-x="596" 
d="M539 48v-48h-441v680h441v-48h-391v-265h347v-48h-347v-271h391z" />
    <glyph glyph-name="F" unicode="F" horiz-adv-x="562" 
d="M148 0h-50v680h431v-48h-381v-268h347v-48h-347v-316z" />
    <glyph glyph-name="G" unicode="G" horiz-adv-x="733" 
d="M50 340c0 193 141 350 335 350c129 0 229 -64 286 -166l-40 -27c-47 87 -134 143 -246 143c-169 0 -283 -130 -283 -300s114 -300 286 -300c91 0 182 32 233 79v191h-199v48h249v-264c-75 -62 -172 -104 -283 -104c-197 0 -338 157 -338 350z" />
    <glyph glyph-name="H" unicode="H" horiz-adv-x="747" 
d="M148 0h-50v680h50v-313h451v313h50v-680h-50v319h-451v-319z" />
    <glyph glyph-name="I" unicode="I" horiz-adv-x="246" 
d="M148 0h-50v680h50v-680z" />
    <glyph glyph-name="J" unicode="J" horiz-adv-x="545" 
d="M14 115l38 30c28 -55 81 -105 168 -105c111 0 186 69 186 225v415h50v-418c0 -175 -101 -272 -236 -272c-104 0 -172 68 -206 125z" />
    <glyph glyph-name="K" unicode="K" horiz-adv-x="618" 
d="M610 0h-64l-266 356l-132 -133v-223h-50v680h50v-388l383 388h66v-4l-280 -282l293 -391v-3z" />
    <glyph glyph-name="L" unicode="L" horiz-adv-x="546" 
d="M521 48v-48h-423v680h50v-632h373z" />
    <glyph glyph-name="M" unicode="M" horiz-adv-x="897" 
d="M98 0v680h67l283 -616l284 616h67v-680h-50v601l-276 -601h-49l-276 601v-601h-50z" />
    <glyph glyph-name="N" unicode="N" horiz-adv-x="757" 
d="M98 0v680h45l466 -594v594h50v-680h-45l-466 594v-594h-50z" />
    <glyph glyph-name="O" unicode="O" horiz-adv-x="770" 
d="M385 690c194 0 335 -157 335 -350s-141 -350 -335 -350s-335 157 -335 350s141 350 335 350zM385 640c-169 0 -283 -130 -283 -300s114 -300 283 -300s283 130 283 300s-114 300 -283 300z" />
    <glyph glyph-name="P" unicode="P" horiz-adv-x="604" 
d="M569 485c0 -119 -77 -194 -221 -194h-200v-291h-50v680h250c144 0 221 -76 221 -195zM517 485c0 91 -50 147 -172 147h-197v-293h197c122 0 172 55 172 146z" />
    <glyph glyph-name="Q" unicode="Q" horiz-adv-x="770" 
d="M385 690c194 0 335 -157 335 -350c0 -123 -57 -230 -148 -293l138 -187l-41 -29l-139 192c-43 -21 -92 -33 -145 -33c-194 0 -335 157 -335 350s141 350 335 350zM385 640c-169 0 -283 -130 -283 -300s114 -300 283 -300s283 130 283 300s-114 300 -283 300z" />
    <glyph glyph-name="R" unicode="R" horiz-adv-x="657" 
d="M578 493c0 -106 -68 -171 -178 -184l255 -306v-3h-65l-251 307h-191v-307h-50v680h260c134 0 220 -68 220 -187zM526 493c0 91 -59 139 -171 139h-207v-277h207c112 0 171 47 171 138z" />
    <glyph glyph-name="S" unicode="S" horiz-adv-x="585" 
d="M521 573l-41 -28c-44 69 -109 95 -178 95c-105 0 -170 -56 -170 -125c0 -71 55 -109 129 -120l74 -12c126 -20 203 -81 203 -187c0 -112 -88 -206 -243 -206c-141 0 -224 84 -267 163l41 28c38 -72 107 -141 226 -141c126 0 191 72 191 156c0 80 -69 122 -158 136l-72 12
c-104 17 -176 75 -176 171c0 89 79 175 222 175c102 0 179 -47 219 -117z" />
    <glyph glyph-name="T" unicode="T" horiz-adv-x="550" 
d="M250 0v632h-225v48h500v-48h-225v-632h-50z" />
    <glyph glyph-name="U" unicode="U" horiz-adv-x="710" 
d="M355 -10c-162 0 -266 117 -266 292v398h50v-392c0 -156 78 -248 216 -248s216 92 216 248v392h50v-398c0 -175 -104 -292 -266 -292z" />
    <glyph glyph-name="V" unicode="V" horiz-adv-x="654" 
d="M72 680l255 -614l255 614h55l-285 -680h-50l-285 680h55z" />
    <glyph glyph-name="W" unicode="W" horiz-adv-x="979" 
d="M82 680l175 -604l208 604h49l208 -604l175 604h55l-205 -680h-50l-208 602l-207 -602h-50l-205 680h55z" />
    <glyph glyph-name="X" unicode="X" horiz-adv-x="610" 
d="M6 3l265 354l-238 320v3h61l211 -286l211 286h61v-3l-238 -320l265 -354v-3h-61l-238 321l-238 -321h-61v3z" />
    <glyph glyph-name="Y" unicode="Y" horiz-adv-x="612" 
d="M331 0h-50v302l-262 375v3h58l229 -328l230 328h58v-3l-263 -376v-301z" />
    <glyph glyph-name="Z" unicode="Z" horiz-adv-x="546" 
d="M513 0h-484v43l409 589h-391v48h455v-43l-409 -589h420v-48z" />
    <glyph glyph-name="a" unicode="a" 
d="M46 243c0 148 104 253 242 253c75 0 138 -34 179 -91v81h48v-486h-48v80c-41 -56 -104 -90 -179 -90c-138 0 -242 105 -242 253zM96 243c0 -126 86 -205 192 -205c83 0 150 45 179 109v191c-29 65 -96 110 -179 110c-106 0 -192 -79 -192 -205z" />
    <glyph glyph-name="b" unicode="b" 
d="M548 243c0 -148 -104 -253 -242 -253c-76 0 -138 34 -179 90v-80h-48v710h48v-305c41 57 103 91 179 91c138 0 242 -105 242 -253zM498 243c0 126 -86 205 -192 205c-84 0 -151 -45 -179 -110v-191c28 -64 95 -109 179 -109c106 0 192 79 192 205z" />
    <glyph glyph-name="c" unicode="c" horiz-adv-x="540" 
d="M288 38c74 0 138 37 170 102l43 -24c-40 -77 -118 -126 -213 -126c-138 0 -242 105 -242 253s104 253 242 253c95 0 173 -49 213 -126l-43 -24c-32 65 -96 102 -170 102c-106 0 -192 -79 -192 -205c0 -127 86 -205 192 -205z" />
    <glyph glyph-name="d" unicode="d" 
d="M46 243c0 148 104 253 242 253c75 0 138 -34 179 -91v305h48v-710h-48v80c-41 -56 -104 -90 -179 -90c-138 0 -242 105 -242 253zM96 243c0 -126 86 -205 192 -205c83 0 150 45 179 109v191c-29 65 -96 110 -179 110c-106 0 -192 -79 -192 -205z" />
    <glyph glyph-name="e" unicode="e" horiz-adv-x="553" 
d="M510 225h-413c7 -116 83 -187 185 -187c73 0 141 36 182 101l39 -28c-53 -76 -128 -121 -221 -121c-139 0 -235 105 -235 253s94 253 233 253c138 0 232 -110 232 -241c0 -10 -1 -24 -2 -30zM280 448c-100 0 -172 -69 -182 -179h362c-5 107 -84 179 -180 179z" />
    <glyph glyph-name="f" unicode="f" horiz-adv-x="297" 
d="M278 670h-8c-82 0 -111 -34 -111 -103v-81h119v-44h-119v-442h-48v442h-89v44h89v81c0 88 50 147 144 147c7 0 15 0 23 -1v-43z" />
    <glyph glyph-name="g" unicode="g" horiz-adv-x="579" 
d="M500 486v-445c0 -157 -103 -246 -225 -246c-94 0 -174 39 -218 120l40 28c36 -67 104 -100 177 -100c101 0 178 71 178 198v57c-40 -55 -98 -88 -172 -88c-138 0 -234 101 -234 243s96 243 234 243c74 0 132 -33 172 -88v78h48zM96 253c0 -115 78 -195 185 -195
c80 0 143 45 171 109v171c-28 65 -91 110 -171 110c-107 0 -185 -80 -185 -195z" />
    <glyph glyph-name="h" unicode="h" horiz-adv-x="570" 
d="M127 710v-308c25 42 81 94 169 94c124 0 201 -75 201 -216v-280h-48v275c0 114 -59 173 -155 173c-104 0 -157 -79 -167 -117v-331h-48v710h48z" />
    <glyph glyph-name="i" unicode="i" horiz-adv-x="206" 
d="M79 0v486h48v-486h-48zM79 599v111h48v-111h-48z" />
    <glyph glyph-name="j" unicode="j" horiz-adv-x="206" 
d="M127 486v-502c0 -83 -33 -147 -99 -190l-26 38c57 42 77 87 77 152v502h48zM79 599v111h48v-111h-48z" />
    <glyph glyph-name="k" unicode="k" horiz-adv-x="497" 
d="M498 0h-61l-216 258l-94 -88v-170h-48v710h48v-482l274 258h63v-4l-208 -192l242 -287v-3z" />
    <glyph glyph-name="l" unicode="l" horiz-adv-x="206" 
d="M79 0v710h48v-710h-48z" />
    <glyph glyph-name="m" unicode="m" horiz-adv-x="936" 
d="M127 486v-81c25 42 80 91 168 91c86 0 149 -37 180 -107c27 56 101 107 188 107c124 0 200 -75 200 -216v-280h-48v275c0 114 -58 173 -154 173c-87 0 -147 -54 -166 -117v-331h-48v275c0 114 -58 173 -154 173c-87 0 -147 -54 -166 -117v-331h-48v486h48z" />
    <glyph glyph-name="n" unicode="n" horiz-adv-x="570" 
d="M127 486v-81c25 42 81 91 169 91c124 0 201 -75 201 -216v-280h-48v275c0 114 -59 173 -155 173c-87 0 -148 -54 -167 -117v-331h-48v486h48z" />
    <glyph glyph-name="o" unicode="o" horiz-adv-x="577" 
d="M288 38c107 0 193 79 193 205s-86 205 -193 205c-106 0 -192 -79 -192 -205s86 -205 192 -205zM288 496c139 0 243 -105 243 -253s-104 -253 -243 -253c-138 0 -242 105 -242 253s104 253 242 253z" />
    <glyph glyph-name="p" unicode="p" 
d="M548 243c0 -148 -104 -253 -242 -253c-76 0 -138 34 -179 90v-276h-48v682h48v-81c41 57 103 91 179 91c138 0 242 -105 242 -253zM498 243c0 126 -86 205 -192 205c-84 0 -150 -45 -179 -110v-191c29 -64 95 -109 179 -109c106 0 192 79 192 205z" />
    <glyph glyph-name="q" unicode="q" 
d="M46 243c0 148 104 253 242 253c75 0 138 -34 179 -91v81h48v-682h-48v276c-41 -56 -104 -90 -179 -90c-138 0 -242 105 -242 253zM96 243c0 -126 86 -205 192 -205c83 0 150 45 179 109v191c-29 65 -96 110 -179 110c-106 0 -192 -79 -192 -205z" />
    <glyph glyph-name="r" unicode="r" horiz-adv-x="323" 
d="M127 486v-93c27 55 84 103 171 103h6v-50c-87 -4 -148 -48 -177 -126v-320h-48v486h48z" />
    <glyph glyph-name="s" unicode="s" horiz-adv-x="463" 
d="M402 411l-39 -31c-32 44 -75 68 -128 68c-79 0 -117 -41 -117 -84c0 -46 39 -68 98 -76l42 -6c101 -14 165 -60 165 -140c0 -86 -77 -152 -193 -152c-94 0 -167 54 -203 111l39 31c31 -52 91 -94 164 -94c78 0 143 33 143 104c0 50 -47 80 -122 91l-42 6
c-81 12 -141 49 -141 125c0 67 55 132 167 132c71 0 131 -34 167 -85z" />
    <glyph glyph-name="t" unicode="t" horiz-adv-x="310" 
d="M286 42v-43c-6 -1 -14 -2 -23 -2c-101 0 -154 48 -154 155v290h-89v44h89v128h48v-128h129v-44h-129v-288c0 -84 35 -112 121 -112h8z" />
    <glyph glyph-name="u" unicode="u" horiz-adv-x="570" 
d="M443 0v81c-25 -42 -81 -91 -169 -91c-124 0 -201 75 -201 216v280h48v-275c0 -114 59 -173 155 -173c87 0 148 54 167 117v331h48v-486h-48z" />
    <glyph glyph-name="v" unicode="v" horiz-adv-x="503" 
d="M72 486l179 -419l180 419h52l-210 -486h-43l-210 486h52z" />
    <glyph glyph-name="w" unicode="w" horiz-adv-x="790" 
d="M713 486h51l-167 -486h-44l-158 422l-158 -422h-44l-167 486h51l139 -419l157 419h44l157 -419z" />
    <glyph glyph-name="x" unicode="x" horiz-adv-x="476" 
d="M450 486v-4l-179 -236l184 -243v-3h-59l-158 212l-158 -212h-59v3l184 243l-179 236v4h59l153 -206l153 206h59z" />
    <glyph glyph-name="y" unicode="y" horiz-adv-x="497" 
d="M72 486l184 -385l172 385h52l-305 -682h-52l108 242l-211 440h52z" />
    <glyph glyph-name="z" unicode="z" horiz-adv-x="446" 
d="M51 486h352v-38l-313 -404h322v-44h-384v38l312 404h-289v44z" />
    <glyph glyph-name="zero" unicode="0" horiz-adv-x="633" 
d="M581 340c0 -205 -94 -350 -264 -350c-171 0 -265 145 -265 350s94 350 265 350c170 0 264 -145 264 -350zM529 340c0 176 -67 300 -212 300c-146 0 -213 -124 -213 -300s67 -300 213 -300c145 0 212 124 212 300z" />
    <glyph glyph-name="one" unicode="1" horiz-adv-x="338" 
d="M244 680v-680h-50v624l-167 -98l-21 42l193 112h45z" />
    <glyph glyph-name="two" unicode="2" horiz-adv-x="527" 
d="M92 515l-45 19c23 71 82 156 206 156c133 0 218 -81 218 -202c0 -211 -309 -308 -371 -440h382v-48h-446v39c86 184 383 262 383 449c0 94 -60 152 -166 152c-81 0 -135 -42 -161 -125z" />
    <glyph glyph-name="three" unicode="3" horiz-adv-x="553" 
d="M254 -10c-118 0 -186 65 -227 115l35 34c41 -51 98 -99 192 -99c113 0 199 59 199 154c0 84 -60 146 -194 146h-58v48h58c104 0 158 61 158 125c0 89 -80 127 -159 127c-66 0 -129 -28 -160 -82l-35 31c36 57 104 101 195 101c121 0 211 -64 211 -177
c0 -63 -38 -115 -96 -143c82 -25 132 -93 132 -175c0 -121 -105 -205 -251 -205z" />
    <glyph glyph-name="four" unicode="4" horiz-adv-x="583" 
d="M382 680h60v-436h119v-48h-119v-196h-50v196h-376v42zM85 244h307v371z" />
    <glyph glyph-name="five" unicode="5" horiz-adv-x="549" 
d="M466 680v-48h-306l-24 -209c32 18 78 37 138 37c131 0 234 -83 234 -230c0 -143 -112 -240 -253 -240c-118 0 -185 65 -226 115l35 34c41 -51 97 -99 191 -99c111 0 201 71 201 190c0 115 -76 180 -182 180c-73 0 -121 -22 -167 -62l-27 10l35 322h351z" />
    <glyph glyph-name="six" unicode="6" horiz-adv-x="605" 
d="M551 573l-38 -29c-36 59 -97 96 -173 96c-145 0 -235 -121 -238 -307c36 75 116 133 210 133c134 0 243 -103 243 -238c0 -137 -109 -238 -243 -238c-168 0 -260 130 -260 333c0 232 114 367 288 367c100 0 171 -53 211 -117zM123 228c0 -101 77 -188 189 -188
c114 0 191 87 191 188s-77 188 -191 188c-112 0 -189 -87 -189 -188z" />
    <glyph glyph-name="seven" unicode="7" horiz-adv-x="469" 
d="M14 680h444v-44l-309 -636h-56v3l310 629h-389v48z" />
    <glyph glyph-name="eight" unicode="8" horiz-adv-x="606" 
d="M303 690c131 0 209 -77 209 -170c0 -63 -30 -115 -96 -143c84 -23 144 -99 144 -184c0 -118 -97 -203 -257 -203s-257 85 -257 203c0 85 60 161 144 184c-66 28 -96 80 -96 143c0 93 78 170 209 170zM146 520c0 -76 71 -122 157 -122s157 45 157 122s-71 122 -157 122
s-157 -45 -157 -122zM98 193c0 -91 77 -156 205 -156s205 65 205 156s-77 156 -205 156s-205 -65 -205 -156z" />
    <glyph glyph-name="nine" unicode="9" horiz-adv-x="605" 
d="M54 107l38 29c36 -59 97 -96 173 -96c144 0 235 120 238 306c-37 -74 -117 -132 -210 -132c-134 0 -243 103 -243 238c0 137 109 238 243 238c168 0 260 -130 260 -333c0 -232 -114 -367 -288 -367c-100 0 -171 53 -211 117zM482 452c0 101 -77 188 -189 188
c-114 0 -191 -87 -191 -188s77 -188 191 -188c112 0 189 87 189 188z" />
    <glyph glyph-name="asterisk" unicode="*" horiz-adv-x="422" 
d="M92 386l88 114l-138 41l14 43l135 -47l-3 143h46l-3 -143l135 47l14 -43l-138 -41l88 -114l-38 -27l-81 118l-81 -118z" />
    <glyph glyph-name="backslash" unicode="\" horiz-adv-x="398" 
d="M314 0l-280 680h50l280 -680h-50z" />
    <glyph glyph-name="bullet" unicode="&#x2022;" horiz-adv-x="399" 
d="M199 206c-58 0 -97 41 -97 96c0 53 39 94 97 94c60 0 98 -41 98 -94c0 -55 -38 -96 -98 -96z" />
    <glyph glyph-name="colon" unicode=":" horiz-adv-x="215" 
d="M67 406v80h79v-80h-79zM67 0v80h79v-80h-79z" />
    <glyph glyph-name="comma" unicode="," horiz-adv-x="217" 
d="M111 -156h-43l36 156h-36v82h81v-72z" />
    <glyph glyph-name="exclam" unicode="!" horiz-adv-x="234" 
d="M133 197h-32l-12 483h56zM77 0v82h81v-82h-81z" />
    <glyph glyph-name="numbersign" unicode="#" horiz-adv-x="615" 
d="M83 459v44h110l40 177h48l-40 -177h200l40 177h48l-40 -177h92v-44h-101l-52 -234h105v-44h-115l-40 -181h-49l40 181h-200l-40 -181h-49l40 181h-85v44h95l53 234h-100zM231 459l-52 -234h200l52 234h-200z" />
    <glyph glyph-name="period" unicode="." horiz-adv-x="217" 
d="M68 0v82h81v-82h-81z" />
    <glyph glyph-name="question" unicode="?" horiz-adv-x="443" 
d="M219 690c101 0 181 -69 181 -173c0 -70 -39 -117 -75 -151l-49 -45c-49 -45 -59 -62 -59 -112v-12h-46c-2 8 -4 19 -4 26c0 55 21 88 78 140l49 45c38 35 54 68 54 108c0 74 -56 124 -129 124c-80 0 -128 -42 -141 -105l-46 13c16 73 78 142 187 142zM154 0v82h81v-82
h-81z" />
    <glyph glyph-name="semicolon" unicode=";" horiz-adv-x="223" 
d="M116 -151h-42l35 151h-35v79h79v-69zM69 406v80h79v-80h-79z" />
    <glyph glyph-name="slash" unicode="/" horiz-adv-x="398" 
d="M84 0h-50l280 680h50z" />
    <glyph glyph-name="underscore" unicode="_" horiz-adv-x="500" 
d="M500 -110h-500v44h500v-44z" />
    <glyph glyph-name="braceleft" unicode="{" horiz-adv-x="317" 
d="M19 279h53c30 0 50 22 50 53v237c0 76 47 114 110 114c12 0 42 -1 55 -3v-42h-40c-43 0 -72 -17 -72 -75v-228c0 -44 -20 -70 -59 -78c39 -8 59 -34 59 -78v-228c0 -58 29 -75 72 -75h40v-42c-13 -2 -43 -3 -55 -3c-63 0 -110 38 -110 114v237c0 31 -20 53 -50 53h-53v44
z" />
    <glyph glyph-name="braceright" unicode="}" horiz-adv-x="317" 
d="M298 235h-53c-30 0 -50 -22 -50 -53v-237c0 -76 -47 -114 -110 -114c-12 0 -42 1 -55 3v42h40c43 0 72 17 72 75v228c0 44 20 70 59 78c-39 8 -59 34 -59 78v228c0 58 -29 75 -72 75h-40v42c13 2 43 3 55 3c63 0 110 -38 110 -114v-237c0 -31 20 -53 50 -53h53v-44z" />
    <glyph glyph-name="bracketleft" unicode="[" horiz-adv-x="277" 
d="M91 680h154v-44h-101v-758h101v-44h-154v846z" />
    <glyph glyph-name="bracketright" unicode="]" horiz-adv-x="277" 
d="M32 680h154v-846h-154v44h101v758h-101v44z" />
    <glyph glyph-name="parenleft" unicode="(" horiz-adv-x="304" 
d="M48 261c0 241 115 376 208 444l30 -37c-95 -70 -186 -201 -186 -407s91 -337 186 -407l-30 -37c-93 68 -208 203 -208 444z" />
    <glyph glyph-name="parenright" unicode=")" horiz-adv-x="305" 
d="M256 261c0 -241 -115 -376 -208 -444l-30 37c95 70 186 201 186 407s-91 337 -186 407l30 37c93 -68 208 -203 208 -444z" />
    <glyph glyph-name="endash" unicode="&#x2013;" horiz-adv-x="583" 
d="M515 281h-447v44h447v-44z" />
    <glyph glyph-name="hyphen" unicode="-" horiz-adv-x="413" 
d="M345 281h-277v44h277v-44z" />
    <glyph glyph-name="uni00AD" unicode="&#xad;" horiz-adv-x="413" 
d="M345 281h-277v44h277v-44z" />
    <glyph glyph-name="quotedblbase" unicode="&#x201e;" horiz-adv-x="368" 
d="M111 -148h-40l34 148h-34v78h77v-69zM261 -148h-40l34 148h-34v78h77v-69z" />
    <glyph glyph-name="quotedblleft" unicode="&#x201c;" horiz-adv-x="362" 
d="M252 680h40l-34 -148h34v-78h-77v69zM101 680h40l-34 -148h34v-78h-77v69z" />
    <glyph glyph-name="quotedblright" unicode="&#x201d;" horiz-adv-x="356" 
d="M111 454h-40l34 148h-34v78h77v-69zM261 454h-40l34 148h-34v78h77v-69z" />
    <glyph glyph-name="quoteleft" unicode="&#x2018;" horiz-adv-x="211" 
d="M101 680h40l-34 -148h34v-78h-77v69z" />
    <glyph glyph-name="quoteright" unicode="&#x2019;" horiz-adv-x="205" 
d="M111 454h-40l34 148h-34v78h77v-69z" />
    <glyph glyph-name="quotesinglbase" unicode="&#x201a;" horiz-adv-x="217" 
d="M111 -148h-40l34 148h-34v78h77v-69z" />
    <glyph glyph-name="space" unicode=" " horiz-adv-x="256" 
 />
    <glyph glyph-name="uni00A0" unicode="&#xa0;" horiz-adv-x="256" 
 />
    <glyph glyph-name="CR" unicode="&#xd;" horiz-adv-x="600" 
 />
    <glyph glyph-name="A" unicode="A" horiz-adv-x="654" 
d="M582 0l-77 186h-356l-77 -186h-55l285 680h50l285 -680h-55zM327 614l-158 -380h316z" />
    <glyph glyph-name=".null" horiz-adv-x="600" 
 />
    <glyph glyph-name="dollar" unicode="$" horiz-adv-x="580" 
d="M328 -111h-48v102c-131 6 -210 86 -251 162l41 28c36 -69 100 -135 210 -141v300l-23 4c-104 17 -176 75 -176 171c0 84 70 166 199 174v96h48v-96c89 -7 157 -52 194 -116l-41 -28c-39 60 -94 87 -153 93v-254l8 -1c126 -20 203 -81 203 -187c0 -104 -76 -193 -211 -204
v-103zM329 332h-1v-291c105 11 159 78 159 155c0 80 -69 122 -158 136zM133 515c0 -71 55 -109 129 -120l18 -3v247c-92 -8 -147 -60 -147 -124z" />
    <glyph glyph-name="Euro" unicode="&#x20ac;" horiz-adv-x="635" 
d="M107 340c0 15 1 29 2 44h-72v48h78c30 158 137 258 276 258c83 0 152 -41 203 -121l-41 -29c-40 68 -97 100 -162 100c-114 0 -198 -77 -224 -208h296v-48h-302c-1 -14 -2 -29 -2 -44s1 -30 2 -44h302v-48h-296c26 -132 110 -208 224 -208c65 0 122 32 162 100l41 -29
c-51 -80 -120 -121 -203 -121c-139 0 -246 100 -276 258h-78v48h72c-1 14 -2 29 -2 44z" />
    <glyph glyph-name="uni20A9" unicode="&#x20a9;" horiz-adv-x="682" 
d="M51 416v46h51l-33 218h52l30 -218h122l44 218h49l44 -218h121l31 218h52l-34 -218h51v-46h-58l-14 -88h72v-46h-79l-43 -282h-50l-57 282h-122l-56 -282h-50l-44 282h-79v46h72l-14 88h-58zM158 416l12 -88h76l17 88h-105zM419 416l18 -88h75l13 88h-106zM308 416
l-18 -88h102l-18 88h-66zM446 282l35 -174l25 174h-60zM177 282l24 -174l35 174h-59zM341 580l-24 -118h48z" />
    <glyph glyph-name="equal" unicode="=" horiz-adv-x="588" 
d="M519 160h-450v44h450v-44zM519 400h-450v44h450v-44z" />
    <glyph glyph-name="greater" unicode="&#x3e;" horiz-adv-x="540" 
d="M59 73v48l395 182l-395 182v48l450 -210v-40z" />
    <glyph glyph-name="less" unicode="&#x3c;" horiz-adv-x="540" 
d="M481 533v-48l-395 -182l395 -182v-48l-450 210v40z" />
    <glyph glyph-name="percent" unicode="%" horiz-adv-x="736" 
d="M569 680l-352 -680h-50l353 680h49zM78 534c0 -63 45 -112 110 -112s110 49 110 112s-45 112 -110 112s-110 -49 -110 -112zM344 534c0 -89 -66 -156 -156 -156s-156 67 -156 156s66 156 156 156s156 -67 156 -156zM438 146c0 -63 45 -112 110 -112s110 49 110 112
s-45 112 -110 112s-110 -49 -110 -112zM704 146c0 -89 -66 -156 -156 -156s-156 67 -156 156s66 156 156 156s156 -67 156 -156z" />
    <glyph glyph-name="plus" unicode="+" horiz-adv-x="520" 
d="M485 324v-44h-203v-203h-44v203h-203v44h203v204h44v-204h203z" />
    <glyph glyph-name="arrowright" unicode="&#x2192;" horiz-adv-x="650" 
d="M47 316h485l-187 191l31 31l239 -244l-239 -244l-31 31l187 191h-485v44z" />
    <glyph glyph-name="bar" unicode="|" horiz-adv-x="226" 
d="M135 710v-876h-44v876h44z" />
    <glyph glyph-name="at" unicode="@" horiz-adv-x="959" 
d="M491 714c238 0 418 -168 418 -396c0 -189 -102 -277 -183 -277c-54 0 -91 27 -102 80c-38 -50 -95 -80 -163 -80c-119 0 -212 93 -212 225s93 225 212 225c66 0 122 -29 160 -76v69h48v-333c0 -41 24 -62 57 -62c58 0 133 65 133 229c0 199 -161 348 -368 348
c-217 0 -396 -163 -396 -400c0 -238 180 -389 396 -389c73 0 130 20 171 43l22 -43c-55 -30 -124 -48 -193 -48c-245 0 -446 166 -446 437c0 265 196 448 446 448zM461 89c77 0 136 40 160 98v158c-24 58 -83 98 -160 98c-91 0 -162 -70 -162 -177s71 -177 162 -177z" />
    <glyph glyph-name="ampersand" unicode="&#x26;" horiz-adv-x="664" 
d="M628 333l-122 -178l140 -152v-3h-68l-102 113c-61 -76 -138 -123 -232 -123c-126 0 -211 86 -211 198s77 171 189 207c-29 36 -58 80 -58 133c0 89 70 162 171 162c96 0 160 -70 160 -152c0 -83 -65 -133 -155 -158l-31 -9l162 -177l114 166zM244 40c80 0 144 39 197 111
l-185 206c-98 -30 -171 -71 -171 -169c0 -84 67 -148 159 -148zM216 528c0 -47 25 -82 57 -118l53 15c73 21 117 51 117 113c0 60 -47 102 -108 102c-71 0 -119 -47 -119 -112z" />
    <glyph glyph-name="copyright" unicode="&#xa9;" horiz-adv-x="855" 
d="M295 340c0 -81 53 -143 135 -143c59 0 102 29 125 74l40 -26c-31 -58 -90 -95 -166 -95c-108 0 -186 83 -186 190s78 190 186 190c76 0 135 -38 166 -95l-40 -27c-23 45 -66 74 -125 74c-82 0 -135 -61 -135 -142zM46 340c0 214 166 380 382 380c215 0 381 -166 381 -380
s-166 -380 -381 -380c-216 0 -382 166 -382 380zM96 340c0 -188 145 -332 332 -332s331 144 331 332s-144 332 -331 332s-332 -144 -332 -332z" />
    </font>
</defs>
</svg>
